Loading...

Highway To Heaven DVDrip S01E24E25 Thoroughbreds Part2

  • Category TV
  • Type DVD
  • Language English
  • Total size 401.3 MB
  • Uploaded By noriegaRJ
  • Downloads 25
  • Last checked 3 weeks ago
  • Date uploaded 4 weeks ago
  • Seeders 0
  • Leechers 0

Infohash : FFF6AB1F8A6AB2A52EF95FA9089AB82BBFBED084

Release: Highway To Heaven DVDrip S01E24E25 Thoroughbreds Part2



IMDB: //www.imdb.com/title/tt0086730

Plot: A probationary angel, sent back to Earth, teams with an ex-cop to help people. Serie with Michael Landon.

General
Complete name : Highway To Heaven DVDrip S01E24E25 Thoroughbreds Part2
Format : AVI
Format/Info : Audio Video Interleave
File size : 401 MiB
Duration : 45mn 14s
Overall bit rate : 1 240 Kbps

Video
ID : 0
Format : MPEG-4 Visual
Format settings, BVOP : 1
Format settings, QPel : No
Format settings, GMC : No warppoints
Format settings, Matrix : Default (H.263)
Muxing mode : Packed bitstream
Codec ID : DX50
Codec ID/Hint : DivX 5
Duration : 45mn 14s
Bit rate : 1 100 Kbps
Width : 672 pixels
Height : 496 pixels
Display aspect ratio : 4:3
Frame rate : 29.970 fps
Color space : YUV
Chroma subsampling : 4:2:0
Bit depth : 8 bits
Scan type : Progressive
Compression mode : Lossy
Bits/(Pixel*Frame) : 0.110
Stream size : 356 MiB (89%)
Title : Video
Writing library : DivX 6.6.1.4

Audio
ID : 1
Format : MPEG Audio
Format version : Version 1
Format profile : Layer 3
Mode : Dual mono
Codec ID : 55
Codec ID/Hint : MP3
Duration : 45mn 14s
Bit rate mode : Constant
Bit rate : 128 Kbps
Channel count : 2 channels
Sampling rate : 48.0 KHz
Compression mode : Lossy
Stream size : 41.4 MiB (10%)
Alignment : Split accross interleaves
Interleave, duration : 33 ms (1.00 video frame)
Interleave, preload duration : 500 ms
Title : Audio


SCREENSHOTS:




Files:

  • Highway To Heaven DVDrip S01E24E25 Thoroughbreds Part2.avi (401.3 MB)

There are currently no comments. Feel free to leave one :)

Code:

  • udp://tracker.opentrackr.org:1337/announce
  • udp://tracker.coppersurfer.tk:6969/announce
  • udp://tracker.leechers-paradise.org:6969/announce
  • udp://tracker.zer0day.to:1337/announce
DOWNLOAD Torrent