Loading...

Puriyatha Puthir (2017) UNCUT 720p HDRip x264 [Dual Audio] [Hindi...

  • Category Movies
  • Type Dubs/Dual Audio
  • Language Hindi
  • Total size 1.6 GB
  • Uploaded By DESIRE123
  • Downloads 3502
  • Last checked 4 weeks ago
  • Date uploaded 1 month ago
  • Seeders 58
  • Leechers 27

Puriyaatha Puthir

CrimeThriller

Kathir, a music director, starts seeing Meera, who teaches music. He starts receiving compromising videos of Meera, and desperately tries to find out the person wrecking their lives, but will it be too late?

Infohash : 1465E99C47EBF5E5914F2BA7453EF1960004AEF1

Puriyatha Puthir (2017) UNCUT 720p HDRip x264 [Dual Audio] [Hindi DD 2.0 - Tamil 5.1] - 1.6 GB


EXUSIVE UPLOAD BY DesireMoVies.Life


Qatl Ka Raaz


POSTER



INFO


General
Format : Matroska
Format version : Version 4
File size : 1.59 GiB
Duration : 2 h 0 min
Overall bit rate : 1 897 kb/s

Video
ID : 1
Format : AVC
Format/Info : Advanced Video Codec
Format profile : [email protected]
Format settings : CABAC / 4 Ref Frames
Format settings, CABAC : Yes
Format settings, ReFrames : 4 frames
Codec ID : V_MPEG4/ISO/AVC
Duration : 2 h 0 min
Bit rate : 1 543 kb/s
Width : 1 280 pixels
Height : 544 pixels
Display aspect ratio : 2.35:1
Frame rate mode : Constant
Frame rate : 24.000 FPS
Color space : YUV
Chroma subsampling : 4:2:0
Bit depth : 8 bits
Scan type : Progressive
Default : Yes
Forced : No

Audio #1
ID : 2
Format : AC-3
Format/Info : Audio Coding 3
Commercial name : Dolby Digital
Codec ID : A_AC3
Duration : 2 h 0 min
Bit rate mode : Constant
Bit rate : 192 kb/s
Channel(s) : 2 channels
Channel layout : L R
Sampling rate : 48.0 kHz
Frame rate : 31.250 FPS (1536 SPF)
Bit depth : 16 bits
Compression mode : Lossy
Stream size : 165 MiB (10%)
Title : DesireMoVies.PRO
Language : Hindi
Service kind : Complete Main
Default : Yes
Forced : Yes

Audio #2
ID : 3
Format : AC-3
Format/Info : Audio Coding 3
Commercial name : Dolby Digital
Codec ID : A_AC3
Duration : 2 h 0 min
Bit rate mode : Constant
Bit rate : 160 kb/s
Channel(s) : 6 channels
Channel layout : L R C LFE Ls Rs
Sampling rate : 44.1 kHz
Frame rate : 28.711 FPS (1536 SPF)
Bit depth : 16 bits
Compression mode : Lossy
Stream size : 138 MiB (8%)
Title : DesireMoVies.PRO
Language : Tamil
Service kind : Complete Main
Default : No
Forced : No


SCREENSHOT



Keep Visit DesireMoVies.trade For More Exusive MoVies


Files:

  • DesireMoVies.Pro Puriyatha Puthir (2017) UNCUT 720p HDRip x264 [Dual Audio].mkv (1.6 GB)

Comments

Code:

  • udp://tracker.opentrackr.org:1337/announce
  • udp://zer0day.to:1337/announce
  • udp://tracker.coppersurfer.tk:6969/announce
  • udp://tracker.coppersurfer.tk:80/announce
  • udp://p4p.arenabg.com:1337/announce
  • udp://p4p.arenabg.ch:1337/announce
  • udp://tracker.internetwarriors.net:1337/announce
  • udp://9.rarbg.to:2710/announce
  • udp://9.rarbg.me:2710/announce
  • udp://9.rarbg.com:2710/announce
  • udp://9.rarbg.me:2730/announce
  • udp://eddie4.nl:6969/announce
  • udp://tracker.leechers-paradise.org:6969/announce
  • udp://tracker.ilibr.org:80/announce
  • udp://tracker.ilibr.org:6969/announce
DOWNLOAD Torrent