Loading...

Grey's Anatomy Season 15. revittony

  • Category TV
  • Type SD
  • Language English
  • Total size 6.2 GB
  • Uploaded By revittony1
  • Downloads 56
  • Last checked 2 days ago
  • Date uploaded 4 days ago
  • Seeders 16
  • Leechers 24

Infohash : C808052CBF012CB2C3A5CAD3E0A9654BB0C02ED5

//www.imdb.com/title/tt0413573



Format : Matroska
Format version : Version 4
Overall bit rate : 1 059 kb/s
Encoded date : UTC 2018-09-27 02:43:21
Writing application : mkvmerge v8.8.0 ('Wind at my back') 64bit
Writing library : libebml v1.3.3 + libmatroska v1.4.4

Video
ID : 1
Format : AVC
Format/Info : Advanced Video Codec
Format profile : [email protected]
Format settings : CABAC / 5 Ref Frames
Format settings, CABAC : Yes
Format settings, Reference frames : 5 frames
Codec ID : V_MPEG4/ISO/AVC
Duration : 42 min 16 s
Bit rate : 953 kb/s
Width : 720 pixels
Height : 404 pixels
Display aspect ratio : 16:9
Frame rate mode : Constant
Frame rate : 23.976 (24000/1001) FPS
Color space : YUV
Chroma subsampling : 4:2:0
Bit depth : 8 bits
Scan type : Progressive
Bits/(Pixel*Frame) : 0.137
Stream size : 288 MiB (90%)
Writing library : x264 core 157 r2935 545de2f
Forced : No
Color range : Limited
Matrix coefficients : BT.709

Audio
ID : 2
Format : AAC LC
Format/Info : Advanced Audio Codec Low Complexity
Codec ID : A_AAC-2
Duration : 42 min 16 s
Bit rate : 104 kb/s
Channel(s) : 2 channels
Channel layout : L R
Sampling rate : 48.0 kHz
Frame rate : 46.875 FPS (1024 SPF)
Compression mode : Lossy
Delay relative to video : 20 ms
Stream size : 31.5 MiB (10%)
Default : Yes
Forced : No

Files:

Grey's Anatomy Season 15
  • S15E01 With a Wonder and a Wild Desire.mkv (320.3 MB)
  • Original File names.txt (1.4 KB)
  • Media info.txt (1.4 KB)
  • S15E02 Broken Together.mkv (263.1 MB)
  • S15E03 Gut Feeling.mkv (279.0 MB)
  • S15E04 Momma Knows Best.mkv (271.6 MB)
  • S15E05 Everyday Angel.mkv (285.3 MB)
  • S15E06 Flowers Grow Out of My Grave.mkv (262.0 MB)
  • S15E07 Anybody Have a Map.mkv (243.1 MB)
  • S15E08 Blowin' in the Wind.mkv (238.6 MB)
  • S15E09 Shelter From the Storm.mkv (237.4 MB)
  • S15E10 Help, I'm Alive.mkv (237.2 MB)
  • S15E11 The Winner Takes It All.mkv (247.3 MB)
  • S15E12 Girlfriend in a Coma.mkv (279.2 MB)
  • S15E13 I Walk the Line.mkv (263.2 MB)
  • S15E14 I Want a New Drug.mkv (237.5 MB)
  • S15E15 We Didn't Start the Fire.mkv (228.8 MB)
  • S15E16 Blood and Water.mkv (248.2 MB)
  • S15E17 And Dream of Sheep.mkv (228.9 MB)
  • S15E18 Add It Up.mkv (227.9 MB)
  • S15E19 Silent All These Years.mkv (255.4 MB)
  • S15E20 The Whole Package.mkv (246.1 MB)
  • S15E21 Good Shepherd.mkv (227.8 MB)
  • S15E22 Head Over High Heels.mkv (230.3 MB)
  • S15E23 What I Did for Love.mkv (241.7 MB)
  • S15E24 Drawn to the Blood.mkv (270.8 MB)
  • S15E25 Jump Into The Fog.mkv (264.6 MB)

There are currently no comments. Feel free to leave one :)

Code:

  • udp://tracker.coppersurfer.tk:6969/announce
  • //tracker.edoardocolombo.eu:6969/announce
  • udp://tracker.tiny-vps.com:6969/announce
  • udp://tracker.opentrackr.org:1337/announce
  • //tracker.nwps.ws:6969/announce
  • udp://explodie.org:6969
  • //t.nyaatracker.com:80/announce
  • udp://tracker.pirateparty.gr:6969/announce
  • udp://public.popcorn-tracker.org:6969/announce
  • //bigfoot1942.sektori.org:6969/announce
  • udp://open.stealth.si:80/announce
  • udp://9.rarbg.to:2710/announce
  • udp://9.rarbg.me:2790/announce
  • //tracker.nwps.ws:6969/announce
  • udp://ipv4.tracker.harry.lu:80/announce
DOWNLOAD Torrent