Loading...

The.Flash.2014.S05E22.720p.HDTV.2CH.x265.HEVC-PSA

  • Category TV
  • Type HEVC/x265
  • Language English
  • Total size 196.7 MB
  • Uploaded By Dakshvv
  • Downloads 360
  • Last checked 2 months ago
  • Date uploaded 2 months ago
  • Seeders 20
  • Leechers 5
80%
May 15, 2019, 2:00 am

The Flash

5x22 | Legacy

Barry faces off with his oldest, and most formidable nemesis, Reverse Flash.

Infohash : 6057860F26A4BEEA207C7048317AA1B93EC76131



Show Title : Flash
Imdb Link : //www.imdb.com/title/tt8312922
Show Plot : Directed by Gregory Smith.  With Grant Gustin, Candice Patton, Danielle Panabaker, Carlos Valdes. Barry faces off with his oldest, and most formidable nemesis, Reverse Flash.
Episode : Season: 5, Episode: 22
Episode Title : Flash
Release Date : (2014) (TV Series)
Episode Review : //www.imdb.com/title/tt8312922







Code:



*** General
Format : Matroska
Format version : Version 4
File size : 197 MiB
Duration : 42 min 25 s
Overall bit rate : 648 kb/s
Movie name : PSArips.com | The.Flash.2014.S05E22.720p.HDTV.2CH.x265.HEVC-PSA
Encoded date : UTC 2019-05-15 03:43:24
Writing application : mkvmerge v33.1.0 ('Primrose') 64-bit
Writing library : libebml v1.3.7 + libmatroska v1.5.0

*** Video
ID : 1
Format : HEVC
Format/Info : High Efficiency Video Coding
Format profile : [email protected]@Main
Codec ID : V_MPEGH/ISO/HEVC
Duration : 42 min 25 s
Bit rate : 572 kb/s
Width : 1 280 pixels
Height : 720 pixels
Display aspect ratio : 16:9
Frame rate mode : Constant
Frame rate : 23.976 (24000/1001) FPS
Color space : YUV
Chroma subsampling : 4:2:0
Bit depth : 8 bits
Bits/(Pixel*Frame) : 0.026
Stream size : 174 MiB (88%)
Default : Yes
Forced : No

*** Audio
ID : 2
Format : AAC LC SBR
Format/Info : Advanced Audio Codec Low Complexity with Spectral Band Replication
Commercial name : HE-AAC
Format settings : Explicit
Codec ID : A_AAC-2
Duration : 42 min 24 s
Bit rate : 74.2 kb/s
Channel(s) : 2 channels
Channel layout : L R
Sampling rate : 48.0 kHz
Frame rate : 23.438 FPS (2048 SPF)
Compression mode : Lossy
Delay relative to video : 23 ms
Stream size : 22.5 MiB (11%)
Language : English
Default : Yes
Forced : No

*** Text
ID : 3
Format : UTF-8
Codec ID : S_TEXT/UTF8
Codec ID/Info : UTF-8 Plain Text
Duration : 5 s 0 ms
Bit rate : 65 b/s
Count of elements : 1
Stream size : 41.0 Bytes (0%)
Language : English
Default : Yes
Forced : No

Files:

  • The.Flash.2014.S05E22.720p.HDTV.2CH.x265.HEVC-PSA.mkv (196.7 MB)

There are currently no comments. Feel free to leave one :)

Code:

  • udp://tracker.internetwarriors.net:1337/announce
  • udp://tracker.leechers-paradise.org:6969/announce
  • udp://tracker.coppersurfer.tk:6969/announce
  • udp://exodus.desync.com:6969/announce
  • udp://tracker.openbittorrent.com:80/announce
  • udp://tracker.sktorrent.net:6969/announce
  • udp://tracker.zer0day.to:1337/announce
  • udp://tracker.pirateparty.gr:6969/announce
  • udp://oscar.reyesleon.xyz:6969/announce
cdn
DOWNLOAD Torrent
X
Attention! Use a VPN when Accessing Free Content !
Your IP address is - Country:
Your Internet provider Tracks your Activity! Hide your IP ADDRESS with a VPN!
Bonus: Get Lag-Free Streams & No popups with any VPN Purchased !

Download Here