Loading...

Game of Thrones S08E05 + Featuretts (1080p AMZN x265 HEVC 10bit A...

  • Category TV
  • Type HEVC/x265
  • Language English
  • Total size 1.1 GB
  • Uploaded By UTRCorp
  • Downloads 1738
  • Last checked 3 months ago
  • Date uploaded 4 months ago
  • Seeders 122
  • Leechers 46
80%
May 13, 2019, 3:00 am

Infohash : B3536610E47C6CB0A197C1062369028D89B58487


Media Information

Code:

General
Format : Matroska
Format version : Version 4 / Version 2
File size : 813 MiB
Duration : 1 h 20 min
Overall bit rate : 1 418 kb/s
Movie name : Game of Thrones S08E05 The Bells (1080p x265 10bit Joy)
Encoded date : UTC 2019-05-13 19:31:14
Writing application : mkvmerge v28.2.0 ('The Awakening') 64-bit
Writing library : libebml v1.3.6 + libmatroska v1.4.9
Writing frontend : StaxRip v2.0, a JoyBell Encode

Video
ID : 1
Format : HEVC
Format/Info : High Efficiency Video Coding
Format profile : Main [email protected]@Main
Codec ID : V_MPEGH/ISO/HEVC
Duration : 1 h 20 min
Bit rate : 1 201 kb/s
Width : 1 920 pixels
Height : 1 080 pixels
Display aspect ratio : 16:9
Frame rate mode : Constant
Frame rate : 23.976 (24000/1001) FPS
Color space : YUV
Chroma subsampling : 4:2:0
Bit depth : 10 bits
Bits/(Pixel*Frame) : 0.024
Stream size : 688 MiB (85%)
Writing library : x265 2.9+15-81373aab81df:[Windows][MSVC 1916][64 bit] 10bit
Encoding settings : cpuid=1111039 / frame-threads=3 / numa-pools=12 / wpp / no-pmode / no-pme / no-psnr / ssim / log-level=2 / input-csp=1 / input-res=1920x1080 / interlace=0 / total-frames=115248 / level-idc=0 / high-tier=1 / uhd-bd=0 / ref=4 / no-allow-non-conformance / no-repeat-headers / annexb / no-aud / no-hrd / info / hash=0 / no-temporal-layers / open-gop / min-keyint=23 / keyint=250 / gop-lookahead=0 / bframes=8 / b-adapt=2 / b-pyramid / bframe-bias=20 / rc-lookahead=250 / lookahead-slices=4 / scenecut=40 / radl=0 / no-splice / no-intra-refresh / ctu=64 / min-cu-size=8 / rect / no-amp / max-tu-size=32 / tu-inter-depth=1 / tu-intra-depth=1 / limit-tu=0 / rdoq-level=2 / dynamic-rd=0.00 / ssim-rd / signhide / no-tskip / nr-intra=0 / nr-inter=0 / no-constrained-intra / strong-intra-smoothing / max-merge=3 / limit-refs=3 / limit-modes / me=3 / subme=3 / merange=57 / temporal-mvp / weightp / no-weightb / no-analyze-src-pics / deblock=2:2 / sao / no-sao-non-deblock / rd=4 / early-skip / rskip / no-fast-intra / no-tskip-fast / no-cu-lossless / no-b-intra / splitrd-skip / rdpenalty=0 / psy-rd=2.50 / psy-rdoq=1.50 / no-rd-refine / no-lossless / cbqpoffs=0 / crqpoffs=0 / rc=abr / bitrate=1200 / qcomp=0.60 / qpstep=4 / stats-write=0 / stats-read=2 / cplxblur=20.0 / qblur=0.5 / ipratio=1.40 / pbratio=1.30 / aq-mode=3 / aq-strength=0.80 / cutree / zone-count=0 / no-strict-cbr / qg-size=32 / no-rc-grain / qpmax=69 / qpmin=0 / no-const-vbv / sar=0 / overscan=0 / videoformat=5 / range=0 / colorprim=2 / transfer=2 / colormatrix=1 / chromaloc=0 / display-window=0 / max-cll=0,0 / min-luma=0 / max-luma=1023 / log2-max-poc-lsb=8 / vui-timing-info / vui-hrd-info / slices=1 / no-opt-qp-pps / no-opt-ref-list-length-pps / multi-pass-opt-rps / scenecut-bias=0.05 / no-opt-cu-delta-qp / no-aq-motion / no-hdr / no-hdr-opt / no-dhdr10-opt / no-idr-recovery-sei / analysis-reuse-level=10 / scale-factor=0 / refine-intra=0 / refine-inter=0 / refine-mv=0 / limit-sao / ctu-info=0 / no-lowpass-dct / refine-mv-type=0 / copy-pic=1 / max-ausize-factor=1.0 / no-dynamic-refine / no-single-sei
Default : Yes
Forced : No
Color range : Limited
Matrix coefficients : BT.709

Audio
ID : 2
Format : AAC
Format/Info : Advanced Audio Codec
Format profile : HE-AAC / LC
Codec ID : A_AAC
Duration : 1 h 20 min
Bit rate : 216 kb/s
Channel(s) : 6 channels
Channel positions : Front: L C R, Side: L R, LFE
Sampling rate : 48.0 kHz / 24.0 kHz
Frame rate : 23.438 FPS (1024 spf)
Compression mode : Lossy
Delay relative to video : 31 ms
Stream size : 124 MiB (15%)
Language : English
Default : No
Forced : No

Subtitle #1
ID : 3
Format : UTF-8
Codec ID : S_TEXT/UTF8
Codec ID/Info : UTF-8 Plain Text
Duration : 1 h 19 min
Bit rate : 24 b/s
Count of elements : 517
Stream size : 14.5 KiB (0%)
Language : English
Default : No
Forced : No

Subtitle #2
ID : 4
Format : UTF-8
Codec ID : S_TEXT/UTF8
Codec ID/Info : UTF-8 Plain Text
Duration : 1 h 19 min
Bit rate : 29 b/s
Count of elements : 739
Stream size : 17.4 KiB (0%)
Language : English
Default : No
Forced : No

Menu
00:00:00.000 : en:Stay Tuned
00:00:01.920 : en:Ratings
00:00:06.920 : en:Previously On
00:01:41.920 : en:Studio Logo
00:01:47.920 : en:Opening Credits
00:03:35.920 : en:The greater the risk, the greater the reward
00:05:08.920 : en:Betrayal must be dealt with accordingly
00:14:10.920 : en:Mercy is our strength
00:20:10.920 : en:Sail for a new life
00:28:11.920 : en:Preparing the city for battle
00:33:56.920 : en:The battle begins
00:39:08.920 : en:The red keep has never fallen
00:40:43.920 : en:Ring the bells
00:45:48.920 : en:Surrender means nothing
00:51:04.920 : en:Another one for the king-slayer
00:56:01.920 : en:The revenge game has no future
00:57:43.920 : en:The Clegane's reunite
01:07:56.920 : en:Jon makes a decision
01:08:56.920 : en:Death is everywhere
01:12:02.920 : en:Nothing else matters
01:14:28.920 : en:King's Landing burns
01:18:17.920 : en:End Credits
01:19:37.920 : en:Next Week
01:20:04.920 : en:Inside the Episode



Source Information

Code:

Release: Game.of.Thrones.S08E05.1080p.AMZN.WEB-DL.DDP5.1.H.264-GoT.mkv (4.95 GBs)



Code:


Note From UTR
We have no issue with individuals posting or re-uploading our torrents on a platform we aren't on. However, if this is something you'd like to do, please do so in a 'as-is' format. We ask that you do not create a new torrent, include all descriptions you see above including the UTR logo, tags, notes and screenshots. If you'd like to become a permanent poster on a website we don't post to, feel free to get in contact with a UniTeam member.

If possible please donate: BTC 1QA5fum5AyXvWzdVCkQzUNvw3Ef15fHRaR





Files:

Game of Thrones Season 8 (1080p Web-DL x265 10bit Joy)
  • Game of Thrones S08E05 The Bells (1080p x265 10bit FS95 Joy).mkv (812.7 MB)
  • folder.jpg (186.5 KB)
  • Encoded by JoyBell (UTR).txt (3.2 KB)
  • How to play HEVC (THIS FILE).txt (3.4 KB)
  • Ninite K-Lite Codecs Unattended Silent Installer and Updater.website (0.5 KB)
  • Featurettes
    • Game of Thrones S08 Episode 5 Game Revealed (1080p x265 10bit Joy).mkv (205.0 MB)
    • Game of Thrones S08 Episode 5 Inside the Episode (1080p x265 10bit Joy).mkv (67.8 MB)

Comments

Code:

  • udp://tracker.coppersurfer.tk:6969/announce
  • udp://9.rarbg.com:2710/announce
  • udp://9.rarbg.to:2710/announce
  • udp://tracker.torrent.eu.org:451/announce
  • udp://exodus.desync.com:6969/announce
  • udp://tracker.tiny-vps.com:6969/announce
  • udp://open.demonii.si:1337/announce
  • udp://tracker.opentrackr.org:1337/announce
  • udp://tracker.internetwarriors.net:1337/announce
DOWNLOAD Torrent
X
Attention! Use a VPN when Accessing Free Content !
Your IP address is - Country:
Your Internet provider Tracks your Activity! Hide your IP ADDRESS with a VPN!
Bonus: Get Lag-Free Streams & No popups with any VPN Purchased !

Download Here