Loading...

Game.of.Thrones.S08E05.WEB-DL.XviD.B4ND1T69

  • Category TV
  • Type Divx/Xvid
  • Language English
  • Total size 711.6 MB
  • Uploaded By B4ND1T69
  • Downloads 222
  • Last checked 3 months ago
  • Date uploaded 3 months ago
  • Seeders 21
  • Leechers 8
80%
May 13, 2019, 3:00 am

Infohash : C7DE96C9ADA4A07EFA9952BE3244DEE97C6942EC

Game.of.Thrones.S08E05.WEB-DL.XviD.B4ND1T69



Creators: David Benioff, D.B. Weiss
Stars: Emilia Clarke, Peter Dinklage, Kit Harington

Plot/Story:
The Bells
Forces have arrived at Kings Landing for the final battle.

General
Complete name : Game.of.Thrones.S08E05.WEB-DL.XviD.B4ND1T69.avi
Format : AVI
Format/Info : Audio Video Interleave
File size : 712 MiB
Duration : 1 h 20 min
Overall bit rate : 1 242 kb/s
Subtitles : Yes...Included(HI)

Video
ID : 0
Format : MPEG-4 Visual
Format profile : Advanced [email protected]
Format settings, BVOP : 2
Format settings, QPel : No
Format settings, GMC : No warppoints
Format settings, Matrix : Default (H.263)
Codec ID : XVID
Codec ID/Hint : XviD
Duration : 1 h 20 min
Bit rate : 1 101 kb/s
Width : 640 pixels
Height : 360 pixels
Display aspect ratio : 16:9
Frame rate : 23.976 (24000/1001) FPS
Color space : YUV
Chroma subsampling : 4:2:0
Bit depth : 8 bits
Scan type : Progressive
Compression mode : Lossy
Bits/(Pixel*Frame) : 0.199
Stream size : 631 MiB (89%)
Writing library : XviD 64

Audio
ID : 1
Format : MPEG Audio
Format version : Version 1
Format profile : Layer 3
Codec ID : 55
Codec ID/Hint : MP3
Duration : 1 h 20 min
Bit rate mode : Constant
Bit rate : 128 kb/s
Channel(s) : 2 channels
Sampling rate : 48.0 kHz
Compression mode : Lossy
Stream size : 73.3 MiB (10%)
Alignment : Aligned on interleaves
Interleave, duration : 24 ms (0.58 video frame)

Screenshots:

//i.imgur.com/y21lSRU.png
//i.imgur.com/30SyztL.png
//i.imgur.com/OML3Or2.png
//i.imgur.com/gkwlRiq.png
//i.imgur.com/RXa8THI.png






Please Seed For As Long As Possible
Or At Least 1:1 Ratio...Thanks
Enjoy Peeps

Files:

Game.of.Thrones.S08E05.WEB-DL.XviD.B4ND1T69
  • 1337x text file.txt (0.1 KB)
  • KAT text file.txt (0.1 KB)
  • Game.of.Thrones.S08E05.WEB-DL.XviD.B4ND1T69.srt (46.2 KB)
  • Game.of.Thrones.S08E05.WEB-DL.XviD.B4ND1T69.avi (711.5 MB)

There are currently no comments. Feel free to leave one :)

Code:

  • udp://tracker.coppersurfer.tk:6969/announce
  • udp://tracker.pirateparty.gr:6969/announce
  • udp://tracker.opentrackr.org:1337/announce
  • udp://tracker.internetwarriors.net:1337/announce
  • udp://tracker.tiny-vps.com:6969/announce
  • udp://open.demonii.si:1337/announce
  • udp://tracker.torrent.eu.org:451/announce
  • udp://tracker.leechers-paradise.org:6969/announce
  • udp://explodie.org:6969/announce
cdn
DOWNLOAD Torrent
X
Attention! Use a VPN when Accessing Free Content !
Your IP address is - Country:
Your Internet provider Tracks your Activity! Hide your IP ADDRESS with a VPN!
Bonus: Get Lag-Free Streams & No popups with any VPN Purchased !

Download Here