Loading...

Game.of.Thrones.S08E05.1080p.10bit.WEBRip.6CH.x265.HEVC-PSA

  • Category TV
  • Type HEVC/x265
  • Language English
  • Total size 1.2 GB
  • Uploaded By Dakshvv
  • Downloads 4313
  • Last checked 3 months ago
  • Date uploaded 3 months ago
  • Seeders 245
  • Leechers 16
80%
May 13, 2019, 3:00 am

Infohash : 789B386C80A6E6B5AB233D43995576682A6DF67B


//www.imdb.com/title/tt0944947/
Screenshot












Code:



*** General
Format : Matroska
Format version : Version 4
File size : 1.16 GiB
Duration : 1 h 29 min
Overall bit rate : 1 849 kb/s
Movie name : PSArips.com | Game.of.Thrones.S08E05.1080p.10bit.WEBRip.6CH.x265.HEVC-PSA
Encoded date : UTC 2019-05-13 02:34:30
Writing application : mkvmerge v33.1.0 ('Primrose') 64-bit
Writing library : libebml v1.3.7 + libmatroska v1.5.0

*** Video
ID : 1
Format : HEVC
Format/Info : High Efficiency Video Coding
Format profile : Main [email protected]@Main
Codec ID : V_MPEGH/ISO/HEVC
Duration : 1 h 29 min
Bit rate : 1 658 kb/s
Width : 1 920 pixels
Height : 1 080 pixels
Display aspect ratio : 16:9
Frame rate mode : Constant
Frame rate : 23.976 (24000/1001) FPS
Color space : YUV
Chroma subsampling : 4:2:0
Bit depth : 10 bits
Bits/(Pixel*Frame) : 0.033
Stream size : 1.04 GiB (90%)
Default : Yes
Forced : No
Color range : Limited
Color primaries : BT.709
Transfer characteristics : BT.709
Matrix coefficients : BT.709

*** Audio
ID : 2
Format : AAC LC SBR
Format/Info : Advanced Audio Codec Low Complexity with Spectral Band Replication
Commercial name : HE-AAC
Format settings : Explicit
Codec ID : A_AAC-2
Duration : 1 h 29 min
Bit rate : 192 kb/s
Channel(s) : 6 channels
Channel layout : C L R Ls Rs LFE
Sampling rate : 48.0 kHz
Frame rate : 23.438 FPS (2048 SPF)
Compression mode : Lossy
Delay relative to video : 23 ms
Stream size : 121 MiB (10%)
Language : English
Default : Yes
Forced : No

*** Text
ID : 3
Format : UTF-8
Codec ID : S_TEXT/UTF8
Codec ID/Info : UTF-8 Plain Text
Duration : 1 h 29 min
Bit rate : 38 b/s
Count of elements : 956
Stream size : 25.6 KiB (0%)
Language : English
Default : Yes
Forced : No

Files:

  • Game.of.Thrones.S08E05.1080p.10bit.WEBRip.6CH.x265.HEVC-PSA.mkv (1.2 GB)

There are currently no comments. Feel free to leave one :)

Code:

  • udp://tracker.internetwarriors.net:1337/announce
  • udp://tracker.leechers-paradise.org:6969/announce
  • udp://tracker.coppersurfer.tk:6969/announce
  • udp://exodus.desync.com:6969/announce
  • udp://tracker.openbittorrent.com:80/announce
  • udp://tracker.sktorrent.net:6969/announce
  • udp://tracker.zer0day.to:1337/announce
  • udp://tracker.pirateparty.gr:6969/announce
  • udp://oscar.reyesleon.xyz:6969/announce
cdn
DOWNLOAD Torrent
X
Attention! Use a VPN when Accessing Free Content !
Your IP address is - Country:
Your Internet provider Tracks your Activity! Hide your IP ADDRESS with a VPN!
Bonus: Get Lag-Free Streams & No popups with any VPN Purchased !

Download Here