Loading...
  • Category TV
  • Type HD
  • Language English
  • Total size 2.2 GB
  • Uploaded By iMaX100
  • Downloads 300
  • Last checked 4 months ago
  • Date uploaded 4 months ago
  • Seeders 72
  • Leechers 2
80%
May 13, 2019, 3:00 am

Infohash : 303EE92F25634D647483B37A3253787A861FB873

Language: English

Genre: Action | Adventure | Drama | Fantasy | Romance

Nine noble families fight for control over the mythical lands of Westeros, while a forgotten race returns after being dormant for thousands of years.




Code:

Format : Matroska
Format version : Version 2
File size : 2.25 GiB
Duration : 1 h 20 min
Overall bit rate : 4 018 kb/s
Encoded date : UTC 2019-05-13 05:15:25
Writing application : mkvmerge v32.0.0 ('Astral Progressions') 64-bit
Writing library : libebml v1.3.7 + libmatroska v1.5.0

Video
ID : 1
Format : AVC
Format/Info : Advanced Video Codec
Format profile : [email protected]
Format settings : CABAC / 4 Ref Frames
Format settings, CABAC : Yes
Format settings, RefFrames : 4 frames
Codec ID : V_MPEG4/ISO/AVC
Duration : 1 h 20 min
Bit rate : 3 569 kb/s
Width : 1 920 pixels
Height : 1 080 pixels
Display aspect ratio : 16:9
Frame rate mode : Constant
Frame rate : 23.976 (24000/1001) FPS
Color space : YUV
Chroma subsampling : 4:2:0
Bit depth : 8 bits
Scan type : Progressive
Bits/(Pixel*Frame) : 0.072
Stream size : 2.00 GiB (89%)
Title : www.SANET.ST
Writing library : x264 core 157 r2969 d4099dd
Encoding settings : cabac=1 / ref=3 / deblock=1:0:0 / analyse=0x3:0x113 / me=hex / subme=7 / psy=1 / psy_rd=1.00:0.00 / mixed_ref=1 / me_range=16 / chroma_me=1 / trellis=1 / 8x8dct=1 / cqm=0 / deadzone=21,11 / fast_pskip=1 / chroma_qp_offset=-2 / threads=12 / lookahead_threads=2 / sliced_threads=0 / nr=0 / decimate=1 / interlaced=0 / bluray_compat=0 / constrained_intra=0 / bframes=3 / b_pyramid=2 / b_adapt=1 / b_bias=0 / direct=1 / weightb=1 / open_gop=0 / weightp=2 / keyint=240 / keyint_min=23 / scenecut=40 / intra_refresh=0 / rc_lookahead=40 / rc=2pass / mbtree=1 / bitrate=3569 / ratetol=1.0 / qcomp=0.60 / qpmin=0 / qpmax=69 / qpstep=4 / cplxblur=20.0 / qblur=0.5 / ip_ratio=1.40 / aq=1:1.00
Default : Yes
Forced : No

Audio
ID : 2
Format : AC-3
Format/Info : Audio Coding 3
Codec ID : A_AC3
Duration : 1 h 20 min
Bit rate mode : Constant
Bit rate : 448 kb/s
Channel(s) : 6 channels
Channel positions : Front: L C R, Side: L R, LFE
Sampling rate : 48.0 kHz
Frame rate : 31.250 FPS (1536 SPF)
Bit depth : 16 bits
Compression mode : Lossy
Stream size : 257 MiB (11%)
Title : www.SANET.ST
Language : English
Service kind : Complete Main
Default : Yes
Forced : No

Text #1
ID : 3
Format : ASS
Codec ID : S_TEXT/ASS
Codec ID/Info : Advanced Sub Station Alpha
Duration : 5 min 5 s
Bit rate : 2 b/s
Count of elements : 1
Compression mode : Lossless
Stream size : 89.0 Bytes (0%)
Title : www.SANET.ST
Language : English
Default : Yes
Forced : Yes

Text #2
ID : 4
Format : UTF-8
Codec ID : S_TEXT/UTF8
Codec ID/Info : UTF-8 Plain Text
Duration : 1 h 19 min
Bit rate : 29 b/s
Count of elements : 739
Stream size : 17.4 KiB (0%)
Title : SDH
Language : English
Default : No
Forced : No

Menu
00:00:00.000 : en:Stay Tuned
00:00:01.920 : en:Ratings
00:00:06.920 : en:Previously On
00:01:41.920 : en:Studio Logo
00:01:47.920 : en:Opening Credits
00:03:35.920 : en:The greater the risk, the greater the reward
00:05:08.920 : en:Betrayal must be dealt with accordingly
00:14:10.920 : en:Mercy is our strength
00:20:10.920 : en:Sail for a new life
00:28:11.920 : en:Preparing the city for battle
00:33:56.920 : en:The battle begins
00:39:08.920 : en:The red keep has never fallen
00:40:43.920 : en:Ring the bells
00:45:48.920 : en:Surrender means nothing
00:51:04.920 : en:Another one for the king-slayer
00:56:01.920 : en:The revenge game has no future
00:57:43.920 : en:The Clegane's reunite
01:07:56.920 : en:Jon makes a decision
01:08:56.920 : en:Death is everywhere
01:12:02.920 : en:Nothing else matters
01:14:28.920 : en:King's Landing burns
01:18:17.920 : en:End Credits
01:19:37.920 : en:Next Week
01:20:04.920 : en:Inside the Episode


Files:

[email protected]

There are currently no comments. Feel free to leave one :)

Code:

  • UDP://TRACKER.LEECHERS-PARADISE.ORG:6969/ANNOUNCE
DOWNLOAD Torrent
X
Attention! Use a VPN when Accessing Free Content !
Your IP address is - Country:
Your Internet provider Tracks your Activity! Hide your IP ADDRESS with a VPN!
Bonus: Get Lag-Free Streams & No popups with any VPN Purchased !

Download Here