Loading...

Game of Thrones S08E05 (1080p AMZN WEB-DL NVENC HEVC 10bit AAC 5....

  • Category TV
  • Type HEVC/x265
  • Language English
  • Total size 1.3 GB
  • Uploaded By UTRCorp
  • Downloads 3997
  • Last checked 1 month ago
  • Date uploaded 1 month ago
  • Seeders 205
  • Leechers 37
80%
May 13, 2019, 3:00 am

Infohash : A4F922CCD983C0CF538409AFD105875558A92B7F


Media Information


Code:

General
Format                                   : Matroska
Format version                           : Version 4 / Version 2
File size                                : 1.26 GiB
Duration                                 : 1 h 20 min
Overall bit rate                         : 2 257 kb/s
Movie name                               : Game of Thrones S08E05  (1080p NV q22 Joy)[UTR]
Encoded date                             : UTC 2019-05-13 02:34:37
Writing application                      : mkvmerge v31.0.0 ('Dolores In A Shoestand') 64-bit
Writing library                          : libebml v1.3.6 + libmatroska v1.4.9
Writing frontend                         : StaxRip v2.0.0.1, a JoyBell Encode

Video
ID                                       : 1
Format                                   : HEVC
Format/Info                              : High Efficiency Video Coding
Format profile                           : Main [email protected]@Main
Codec ID                                 : V_MPEGH/ISO/HEVC
Duration                                 : 1 h 20 min
Bit rate                                 : 2 039 kb/s
Width                                    : 1 920 pixels
Height                                   : 1 080 pixels
Display aspect ratio                     : 16:9
Frame rate mode                          : Constant
Frame rate                               : 23.976 (24000/1001) FPS
Color space                              : YUV
Chroma subsampling                       : 4:2:0
Bit depth                                : 10 bits
Bits/(Pixel*Frame)                       : 0.041
Stream size                              : 1.14 GiB (90%)
Default                                  : Yes
Forced                                   : No
Color range                              : Limited
Matrix coefficients                      : BT.709

Audio
ID                                       : 2
Format                                   : AAC
Format/Info                              : Advanced Audio Codec
Format profile                           : HE-AAC / LC
Codec ID                                 : A_AAC
Duration                                 : 1 h 20 min
Bit rate                                 : 216 kb/s
Channel(s)                               : 6 channels
Channel positions                        : Front: L C R, Side: L R, LFE
Sampling rate                            : 48.0 kHz / 24.0 kHz
Frame rate                               : 23.438 FPS (1024 spf)
Compression mode                         : Lossy
Delay relative to video                  : 31 ms
Stream size                              : 124 MiB (10%)
Language                                 : English
Default                                  : No
Forced                                   : No

Subtitle #1
ID                                       : 3
Format                                   : UTF-8
Codec ID                                 : S_TEXT/UTF8
Codec ID/Info                            : UTF-8 Plain Text
Duration                                 : 1 h 19 min
Bit rate                                 : 24 b/s
Count of elements                        : 517
Stream size                              : 14.5 KiB (0%)
Language                                 : English
Default                                  : No
Forced                                   : No

Subtitle #2
ID                                       : 4
Format                                   : UTF-8
Codec ID                                 : S_TEXT/UTF8
Codec ID/Info                            : UTF-8 Plain Text
Duration                                 : 1 h 19 min
Bit rate                                 : 29 b/s
Count of elements                        : 739
Stream size                              : 17.4 KiB (0%)
Title                                    : SDH
Language                                 : English
Default                                  : No
Forced                                   : No

Menu
00:00:00.000                             : en:Stay Tuned
00:00:01.920                             : en:Ratings
00:00:06.920                             : en:Previously On
00:01:41.920                             : en:Studio Logo
00:01:47.920                             : en:Opening Credits
00:03:35.920                             : en:The greater the risk, the greater the reward
00:05:08.920                             : en:Betrayal must be dealt with accordingly
00:14:10.920                             : en:Mercy is our strength
00:20:10.920                             : en:Sail for a new life
00:28:11.920                             : en:Preparing the city for battle
00:33:56.920                             : en:The battle begins
00:39:08.920                             : en:The red keep has never fallen
00:40:43.920                             : en:Ring the bells
00:45:48.920                             : en:Surrender means nothing
00:51:04.920                             : en:Another one for the king-slayer
00:56:01.920                             : en:The revenge game has no future
00:57:43.920                             : en:The Clegane's reunite
01:07:56.920                             : en:Jon makes a decision
01:08:56.920                             : en:Death is everywhere
01:12:02.920                             : en:Nothing else matters
01:14:28.920                             : en:King's Landing burns
01:18:17.920                             : en:End Credits
01:19:37.920                             : en:Next Week
01:20:04.920                             : en:Inside the Episode



Source Information


Code:

Release: Game.of.Thrones.S08E05.1080p.AMZN.WEB-DL.DDP5.1.H.264-GoT.mkv (4.95 GBs)


Code:


Note From UTR
We have no issue with individuals posting or re-uploading our torrents on a platform we aren't on. However, if this is something you'd like to do, please do so in a 'as-is' format. We ask that you do not create a new torrent, include all descriptions you see above including the UTR logo, tags, notes and screenshots. If you'd like to become a permanent poster on a website we don't post to, feel free to get in contact with a UniTeam member.

If possible please donate: BTC 1QA5fum5AyXvWzdVCkQzUNvw3Ef15fHRaR






Files:

  • Game of Thrones S08E05 (1080p NV q22 Joy).mkv (1.3 GB)

Comments

Code:

  • udp://tracker.coppersurfer.tk:6969/announce
  • udp://9.rarbg.com:2710/announce
  • udp://9.rarbg.to:2710/announce
  • udp://tracker.torrent.eu.org:451/announce
  • udp://exodus.desync.com:6969/announce
  • udp://tracker.tiny-vps.com:6969/announce
  • udp://open.demonii.si:1337/announce
  • udp://tracker.opentrackr.org:1337/announce
  • udp://tracker.internetwarriors.net:1337/announce
DOWNLOAD Torrent