Loading...

Nela Ticket (2018) UNCUT 720p HDRip x264 Esub [Dual Audio] [Hindi...

  • Category Movies
  • Type Dubs/Dual Audio
  • Language Hindi
  • Total size 1.6 GB
  • Uploaded By DESIRE123
  • Downloads 18762
  • Last checked 3 weeks ago
  • Date uploaded 3 weeks ago
  • Seeders 240
  • Leechers 150

Nela Ticket

ActionDrama

A carefree young man is forced to alter his life due to a shocking event that takes place in his life. He fights against an evil, corrupt politician to get justice for the society.

Infohash : 21E5671CC1E250585FE0E8BC5F453948C14B736A

Nela Ticket (2018) UNCUT 720p HDRip x264 Esub [Dual Audio] [Hindi (Cleaned) - Telugu] - 1.6 GB


EXUSIVE UPLOAD BY DesireMoVies.Space


Nela Ticket(2017)


POSTER



INFO


General
Format version : Version 4
File size : 1.58 GiB
Duration : 2 h 51 min
Overall bit rate : 1 318 kb/s

Video
ID : 1
Format : AVC
Format/Info : Advanced Video Codec
Format profile : [email protected]
Format settings : CABAC / 4 Ref Frames
Format settings, CABAC : Yes
Format settings, ReFrames : 4 frames
Codec ID : V_MPEG4/ISO/AVC
Duration : 2 h 51 min
Bit rate : 1 097 kb/s
Width : 1 280 pixels
Height : 544 pixels
Display aspect ratio : 2.35:1
Frame rate mode : Constant
Frame rate : 25.000 FPS
Color space : YUV
Chroma subsampling : 4:2:0
Bit depth : 8 bits
Scan type : Progressive
Language : Telugu
Default : Yes
Forced : No
Color range : Limited
Color primaries : BT.709
Transfer characteristics : BT.709
Matrix coefficients : BT.709

Audio #1
ID : 2
Format : MPEG Audio
Format version : Version 1
Format profile : Layer 3
Format settings : Joint stereo / MS Stereo
Codec ID : A_MPEG/L3
Codec ID/Hint : MP3
Duration : 2 h 51 min
Bit rate mode : Constant
Bit rate : 160 kb/s
Channel(s) : 2 channels
Sampling rate : 48.0 kHz
Frame rate : 41.667 FPS (1152 SPF)
Compression mode : Lossy
Stream size : 196 MiB (12%)
Title : DesireMovies.SpaCE - Hindi
Writing library : LAME3.98.2
Default : Yes
Forced : Yes

Audio #2
ID : 3
Format : AAC LC SBR
Format/Info : Advanced Audio Codec Low Complexity with Spectral Band Replication
Commercial name : HE-AAC
Format settings : NBC
Codec ID : A_AAC-5
Duration : 2 h 51 min
Bit rate : 64.0 kb/s
Channel(s) : 2 channels
Channel layout : L R
Sampling rate : 48.0 kHz
Frame rate : 23.438 FPS (2048 SPF)
Compression mode : Lossy
Stream size : 78.4 MiB (5%)
Title : DesireMovies.SpaCE
Language : Telugu
Default : No
Forced : No

Text #1
ID : 4
Format : ASS
Codec ID : S_TEXT/ASS
Codec ID/Info : Advanced Sub Station Alpha
Duration : 2 h 48 min
Bit rate : 130 b/s
Count of elements : 2295
Compression mode : Lossless
Stream size : 161 KiB (0%)
Language : English
Default : Yes
Forced : No

Text #2
ID : 5
Format : ASS
Codec ID : S_TEXT/ASS
Codec ID/Info : Advanced Sub Station Alpha
Duration : 1 h 19 min
Bit rate : 0 b/s
Count of elements : 3
Compression mode : Lossless
Stream size : 165 Bytes (0%)
Default : No
Forced : No


SCREENSHOT



Keep Visit DesireMoVies.trade For More Exusive MoVies


Files:

Nela Ticket (2018) UNCUT 720p HDRip x264 Esub [Dual Audio] [Hindi (Cleaned) - Telugu]
  • SAMPLE.mkv (10.2 MB)
  • Nela Ticket (2018) UNCUT 720p HDRip x264 Esub [Dual Audio] DesireMovies Space.mkv (1.6 GB)

Comments

Code:

  • udp://tracker.coppersurfer.tk:6969/announce
  • udp://tracker.pirateparty.gr:6969/announce
  • udp://shadowshq.yi.org:6969/announce
  • udp://eddie4.nl:6969/announce
  • udp://tracker.leechers-paradise.org:6969/announce
  • udp://tracker.opentrackr.org:1337/announce
  • udp://p4p.arenabg.ch:1337/announce
  • udp://p4p.arenabg.com:1337/announce
  • udp://9.rarbg.me:2710/announce
  • udp://9.rarbg.to:2710/announce
  • udp://ipv4.tracker.harry.lu:80/announce
  • udp://tracker.grepler.com:6969/announce
  • udp://public.popcorn-tracker.org:6969/announce
  • udp://tracker.opentrackr.org:1337/announce
  • udp://tracker.zer0day.to:1337/announce
DOWNLOAD Torrent