Loading...

Game.of.Thrones.S08E02.1080p.WEB-DL.Dual.YG

  • Category TV
  • Type HD
  • Language Spanish
  • Total size 1.0 GB
  • Uploaded By yerisan710
  • Downloads 488
  • Last checked 4 months ago
  • Date uploaded 5 months ago
  • Seeders 20
  • Leechers 1
80%
April 22, 2019, 3:00 am

Game of Thrones

The battle at Winterfell is approaching. Jaime is confronted with the consequences of the past.

Infohash : 655FB26C0B73D19E831CD08C59AA6D40AD663025


Game.of.Thrones.S08E02.1080p.WEB-DL.Dual.YG
     Inf General

Format                                   : Matroska
Format version                           : Version 4 / Version 2
File size                                : 1.02 GiB
Duration                                 : 59 min 11 s
Overall bit rate                         : 2 463 kb/s
Movie name                               : Game.of.Thrones.S08E02.1080p.WEB-DL.Dual.YG
Encoded date                             : UTC 2019-04-22 04:03:00
Writing application                      : mkvmerge v9.9.0 ('Pick Up') 64bit
Writing library                          : libebml v1.3.4 + libmatroska v1.4.5
Attachments                              : rino.png

Video
ID                                       : 1
Format                                   : AVC
Format/Info                              : Advanced Video Codec
Format profile                           : [email protected]
Format settings, CABAC                   : Yes
Format settings, ReFrames                : 4 frames
Codec ID                                 : V_MPEG4/ISO/AVC
Duration                                 : 59 min 11 s
Bit rate                                 : 2 055 kb/s
Width                                    : 1 920 pixels
Height                                   : 1 080 pixels
Display aspect ratio                     : 16:9
Frame rate mode                          : Constant
Frame rate                               : 23.976 (24000/1001) FPS
Color space                              : YUV
Chroma subsampling                       : 4:2:0
Bit depth                                : 8 bits
Scan type                                : Progressive
Bits/(Pixel*Frame)                       : 0.041
Stream size                              : 869 MiB (83%)
Title                                    : Game.of.Thrones.S08E02.1080p.WEB-DL.Dual.YG
Writing library                          : x264 core 155 r2901 7d0ff22
Encoding settings                        : cabac=1 / ref=4 / deblock=1:-2:-2 / analyse=0x3:0x133 / me=umh / subme=10 / psy=1 / psy_rd=1.00:0.15 / mixed_ref=1 / me_range=32 / chroma_me=1 / trellis=2 / 8x8dct=1 / cqm=0 / deadzone=21,11 / fast_pskip=1 / chroma_qp_offset=-3 / threads=34 / lookahead_threads=2 / sliced_threads=0 / nr=0 / decimate=1 / interlaced=0 / bluray_compat=0 / constrained_intra=0 / bframes=3 / b_pyramid=2 / b_adapt=2 / b_bias=0 / direct=3 / weightb=1 / open_gop=0 / weightp=2 / keyint=250 / keyint_min=23 / scenecut=40 / intra_refresh=0 / rc_lookahead=60 / rc=2pass / mbtree=1 / bitrate=2055 / ratetol=1.0 / qcomp=0.60 / qpmin=0 / qpmax=69 / qpstep=4 / cplxblur=20.0 / qblur=0.5 / vbv_maxrate=15500 / vbv_bufsize=16000 / nal_hrd=none / filler=0 / ip_ratio=1.40 / aq=3:0.80
Default                                  : Yes
Forced                                   : No

Audio #1
ID                                       : 2
Format                                   : AAC
Format/Info                              : Advanced Audio Codec
Format profile                           : HE-AAC / LC
Codec ID                                 : A_AAC
Duration                                 : 59 min 11 s
Bit rate                                 : 187 kb/s
Channel(s)                               : 6 channels
Channel positions                        : Front: L C R, Side: L R, LFE
Sampling rate                            : 48.0 kHz / 24.0 kHz
Frame rate                               : 23.438 FPS (1024 spf)
Compression mode                         : Lossy
Delay relative to video                  : 31 ms
Stream size                              : 79.3 MiB (8%)
Title                                    : Game.of.Thrones.S08E02.1080p.WEB-DL.Dual.YG
Language                                 : English
Default                                  : No
Forced                                   : No

Audio #2
ID                                       : 3
Format                                   : AAC
Format/Info                              : Advanced Audio Codec
Format profile                           : LC
Codec ID                                 : A_AAC
Duration                                 : 59 min 6 s
Bit rate                                 : 221 kb/s
Channel(s)                               : 2 channels
Channel positions                        : Front: L R
Sampling rate                            : 48.0 kHz
Frame rate                               : 46.875 FPS (1024 spf)
Compression mode                         : Lossy
Delay relative to video                  : 4 s 96 ms
Stream size                              : 93.6 MiB (9%)
Title                                    : Game.of.Thrones.S08E02.1080p.WEB-DL.Dual.YG
Language                                 : Spanish
Default                                  : Yes
Forced                                   : Yes





you can follow me...
Spanish YG

Go.! Go.! Go.! Go.!

(-1337x-)


(-glodls-)


(-thepiratebay-)


(-prostylex-)


(-torrentgalaxy-)

*PiRATES_NEVER_DiE!*
*We Just go ON and On and On...FOREVER!*

Files:

Game.of.Thrones.S08E02.1080p.WEB.Dual.YG
  • Game.of.Thrones.S08E02.1080p.WEB-DL.Dual.YG.mkv (1.0 GB)
  • Please
    • [TGx]Downloaded from torrentgalaxy.org .txt (0.6 KB)
    • Paypal Collaboration and Donations.txt (0.7 KB)

There are currently no comments. Feel free to leave one :)

Code:

  • udp://tracker.leechers-paradise.org:6969/announce
  • udp://tracker.coppersurfer.tk:6969/announce
  • udp://tracker.pirateparty.gr:6969/announce
  • udp://open.stealth.si:80/announce
  • udp://tracker.opentrackr.org:1337/announce
  • udp://tracker.internetwarriors.net:1337/announce
  • udp://open.demonii.si:1337/announce
  • udp://ipv4.tracker.harry.lu:80/announce
  • udp://exodus.desync.com:6969/announce
  • udp://denis.stalker.upeer.me:6969/announce
  • udp://explodie.org:6969/announce
  • udp://tracker.dler.org:6969/announce
  • udp://tracker.torrent.eu.org:451/announce
DOWNLOAD Torrent
X
Attention! Use a VPN when Accessing Free Content !
Your IP address is - Country:
Your Internet provider Tracks your Activity! Hide your IP ADDRESS with a VPN!
Bonus: Get Lag-Free Streams & No popups with any VPN Purchased !

Download Here