Loading...

Rajathandhiram (2015) 720p WEB-HDRip x264 [Dual Audio] [Hindi DD ...

  • Category Movies
  • Type Dubs/Dual Audio
  • Language Hindi
  • Total size 1.2 GB
  • Uploaded By DESIRE123
  • Downloads 2935
  • Last checked 5 months ago
  • Date uploaded 5 months ago
  • Seeders 47
  • Leechers 21

Rajathandhiram

ComedyCrimeDramaThrillerRomance

Three small-time criminals take up an offer to rob one of the biggest jewellery shops in the city. Will they be successful in their attempt, given that the store's owner, a ruthless man, is aware of the plan?

Infohash : EAF906AB4A170FDE893D316AA01851838205409B

Rajathandhiram (2015) 720p WEB-HDRip x264 [Dual Audio] [Hindi DD 2.0 - Tamil 2.0] - 1.2 GB


EXUSIVE UPLOAD BY DesireMoVies.Host


Hindi As  -  Ek Ultimate Chaalbaaz 


POSTER




INFO


General
Format : Matroska
Format version : Version 4
File size : 1.20 GiB
Duration : 2 h 5 min
Overall bit rate : 1 374 kb/s

Video
ID : 1
Format : AVC
Format/Info : Advanced Video Codec
Format profile : [email protected]
Format settings : CABAC / 4 Ref Frames
Format settings, CABAC : Yes
Format settings, ReFrames : 4 frames
Codec ID : V_MPEG4/ISO/AVC
Duration : 2 h 5 min
Bit rate : 1 100 kb/s
Width : 1 280 pixels
Height : 674 pixels
Display aspect ratio : 1.901
Frame rate mode : Constant
Frame rate : 23.976 (24000/1001) FPS
Color space : YUV
Language : Tamil
Default : Yes
Forced : No
Color range : Limited
Color primaries : BT.709
Transfer characteristics : BT.709
Matrix coefficients : BT.709

Audio #1
ID : 2
Format : AC-3
Format/Info : Audio Coding 3
Commercial name : Dolby Digital
Codec ID : A_AC3
Duration : 2 h 5 min
Bit rate mode : Constant
Bit rate : 192 kb/s
Channel(s) : 2 channels
Channel layout : L R
Sampling rate : 48.0 kHz
Frame rate : 31.250 FPS (1536 SPF)
Bit depth : 16 bits
Compression mode : Lossy
Delay relative to video : -105 ms
Stream size : 172 MiB (14%)
Title : DesireMoVies.Host - Hindi
Language : Hindi
Service kind : Complete Main
Default : Yes
Forced : Yes

Audio #2
ID : 3
Format : AAC LC SBR
Format/Info : Advanced Audio Codec Low Complexity with Spectral Band Replication
Commercial name : HE-AAC
Format settings : NBC
Codec ID : A_AAC-5
Duration : 2 h 5 min
Bit rate : 80.0 kb/s
Channel(s) : 2 channels
Channel layout : L R
Sampling rate : 48.0 kHz
Frame rate : 23.438 FPS (2048 SPF)
Compression mode : Lossy
Delay relative to video : -105 ms
Stream size : 71.5 MiB (6%)
Title : DesireMoVies.Host
Language : Tamil
Default : No
Forced : No


SCREENSHOT



Keep Visit DesireMoVies.trade For More Exusive MoVies


Files:

Rajathandhiram (2015) 720p WEB-HDRip x264 [Dual Audio] [Hindi DD 2.0 - Tamil 2.0]
  • SAMPLE DesireMovies.Host.mkv (12.8 MB)
  • Rajathandhiram (2015) 720p WEB-HDRip x264 [Dual Audio] DesireMovies.Host.mkv (1.2 GB)

There are currently no comments. Feel free to leave one :)

Code:

  • udp://tracker.coppersurfer.tk:6969/announce
  • udp://tracker.pirateparty.gr:6969/announce
  • udp://shadowshq.yi.org:6969/announce
  • udp://eddie4.nl:6969/announce
  • udp://tracker.leechers-paradise.org:6969/announce
  • udp://tracker.opentrackr.org:1337/announce
  • udp://p4p.arenabg.ch:1337/announce
  • udp://p4p.arenabg.com:1337/announce
  • udp://9.rarbg.me:2710/announce
  • udp://9.rarbg.to:2710/announce
  • udp://ipv4.tracker.harry.lu:80/announce
  • udp://tracker.grepler.com:6969/announce
  • udp://public.popcorn-tracker.org:6969/announce
  • udp://tracker.opentrackr.org:1337/announce
  • udp://tracker.zer0day.to:1337/announce
DOWNLOAD Torrent
X
Attention! Use a VPN when Accessing Free Content !
Your IP address is - Country:
Your Internet provider Tracks your Activity! Hide your IP ADDRESS with a VPN!
Bonus: Get Lag-Free Streams & No popups with any VPN Purchased !

Download Here