Loading...

Tagaru (2018) UNCUT 720p HDRip x264 [Dual Audio] [Hindi DD 2.0 - ...

  • Category Movies
  • Type Dubs/Dual Audio
  • Language Hindi
  • Total size 1.7 GB
  • Uploaded By DESIRE123
  • Downloads 6518
  • Last checked 5 months ago
  • Date uploaded 5 months ago
  • Seeders 102
  • Leechers 50

Tagaru

Action

Duniya Soori's Tagaru takes us on a bloody ride through the dark underbelly of the underworld and their clash against the police.

Infohash : 8292DAE86621E77241ED7E9EEFB30809B44B22A4

Tagaru (2018) UNCUT 720p HDRip x264 [Dual Audio] [Hindi DD 2.0 - Kannada 2.0] - 1.65 GB


EXUSIVE UPLOAD BY DesireMoVies.Life


Tagaru


POSTER



INFO


General
Format : Matroska
Format version : Version 4
File size : 1.66 GiB
Duration : 2 h 9 min
Overall bit rate : 1 825 kb/s
Movie name : [email protected]
Encoded date : UTC 2019-03-22 07:22:48
Writing application : mkvmerge v13.0.0 ('The Juggler') 64bit
Writing library : libebml v1.3.4 + libmatroska v1.4.5

Video
ID : 1
Format : AVC
Format/Info : Advanced Video Codec
Format profile : [email protected]
Format settings : CABAC / 4 Ref Frames
Format settings, CABAC : Yes
Format settings, ReFrames : 4 frames
Codec ID : V_MPEG4/ISO/AVC
Duration : 2 h 9 min
Bit rate : 1 460 kb/s
Width : 1 280 pixels
Height : 536 pixels
Display aspect ratio : 2.40:1
Frame rate mode : Constant
Frame rate : 30.000 FPS
Color space : YUV
Chroma subsampling : 4:2:0
Bit depth : 8 bits
Scan type : Progressive
Bits/(Pixel*Frame) : 0.071
Stream size : 1.30 GiB (79%)
Title : DesireMovies.Host
Default : Yes
Forced : No

Audio #1
ID : 2
Format : AC-3
Format/Info : Audio Coding 3
Commercial name : Dolby Digital
Codec ID : A_AC3
Duration : 2 h 9 min
Bit rate mode : Constant
Bit rate : 256 kb/s
Channel(s) : 2 channels
Channel layout : L R
Sampling rate : 48.0 kHz
Frame rate : 31.250 FPS (1536 SPF)
Bit depth : 16 bits
Compression mode : Lossy
Stream size : 238 MiB (14%)
Title : DesireMovies.Host
Language : Hindi
Service kind : Complete Main
Default : Yes
Forced : Yes

Audio #2
ID : 3
Format : MPEG Audio
Format version : Version 1
Format profile : Layer 3
Format settings : Joint stereo / MS Stereo
Codec ID : A_MPEG/L3
Codec ID/Hint : MP3
Duration : 2 h 9 min
Bit rate mode : Constant
Bit rate : 128 kb/s
Channel(s) : 2 channels
Sampling rate : 44.1 kHz
Frame rate : 38.281 FPS (1152 SPF)
Compression mode : Lossy
Stream size : 119 MiB (7%)
Title : DesireMovies.Host
Language : Kannada
Default : No
Forced : No

Text
ID : 4
Format : ASS
Codec ID : S_TEXT/ASS
Codec ID/Info : Advanced Sub Station Alpha
Duration : 1 h 19 min
Bit rate : 0 b/s
Count of elements : 3
Compression mode : Lossless
Stream size : 162 Bytes (0%)
Title : DesireMovies.Host
Default : Yes
Forced : No


SCREENSHOT



Keep Visit DesireMoVies.trade For More Exusive MoVies


Files:

Tagaru (2018) UNCUT 720p HDRip x264 [Dual Audio] DesireMovies.Host
  • SAMPLE.mkv (14.0 MB)
  • Tagaru (2018) UNCUT 720p HDRip x264 [Dual Audio] [Hindi DD 2.0 - Kannada 2.0].mkv (1.7 GB)

Comments

Code:

  • udp://tracker.coppersurfer.tk:6969/announce
  • udp://tracker.pirateparty.gr:6969/announce
  • udp://shadowshq.yi.org:6969/announce
  • udp://eddie4.nl:6969/announce
  • udp://tracker.leechers-paradise.org:6969/announce
  • udp://tracker.opentrackr.org:1337/announce
  • udp://p4p.arenabg.ch:1337/announce
  • udp://p4p.arenabg.com:1337/announce
  • udp://9.rarbg.me:2710/announce
  • udp://9.rarbg.to:2710/announce
  • udp://ipv4.tracker.harry.lu:80/announce
  • udp://tracker.grepler.com:6969/announce
  • udp://public.popcorn-tracker.org:6969/announce
  • udp://tracker.opentrackr.org:1337/announce
  • udp://tracker.zer0day.to:1337/announce
cdn
DOWNLOAD Torrent
X
Attention! Use a VPN when Accessing Free Content !
Your IP address is - Country:
Your Internet provider Tracks your Activity! Hide your IP ADDRESS with a VPN!
Bonus: Get Lag-Free Streams & No popups with any VPN Purchased !

Download Here