Loading...

Potugadu (2013) UNCUT 720p HDRip x264 Esub [Dual Audio] [Hindi DD...

  • Category Movies
  • Type Dubs/Dual Audio
  • Language Hindi
  • Total size 1.4 GB
  • Uploaded By DESIRE123
  • Downloads 3660
  • Last checked 3 months ago
  • Date uploaded 3 months ago
  • Seeders 28
  • Leechers 8

Potugadu

Potugadu is a Telugu film directed by Pavan Wadeyar. It is a remake of the Kannada film Govindaya Namaha which was also directed by Pavan Wadeyar. It is being produced by Sirisha and Sridhar under Ramalakshmi Cine Creations banner.

Infohash : 05241DA56C556DD03C56F74A1FDDB1C40C5E19A5

Potugadu (2013) UNCUT 720p HDRip x264 Esub [Dual Audio] [Hindi DD 2.0 - Telugu 2.0] - 1.3 GB


[font=Verdana]EXUSIVE UPLOAD BY DesireMoVies.Life[/font]


Potugadu (2013)


POSTER



INFO


General
Format                         : Matroska
Format version                 : Version 4
File size                      : 1.34 GiB
Duration                       : 1 h 54 min
Overall bit rate               : 1 674 kb/s

Video
ID                             : 1
Format                         : AVC
Format/Info                    : Advanced Video Codec
Format profile                 : [email protected]
Format settings                : CABAC / 8 Ref Frames
Format settings, CABAC         : Yes
Format settings, ReFrames      : 8 frames
Codec ID                       : V_MPEG4/ISO/AVC
Duration                       : 1 h 54 min
Bit rate                       : 1 400 kb/s
Width                          : 1 280 pixels
Height                         : 546 pixels
Display aspect ratio           : 2.35:1
Original display aspect ratio  : 2.35:1
Frame rate mode                : Constant
Frame rate                     : 23.976 (24000/1001) FPS
Color space                    : YUV
Chroma subsampling             : 4:2:0
Bit depth                      : 8 bits
Scan type                      : Progressive
Default                        : Yes
Forced                         : No
Color range                    : Limited
Color primaries                : BT.709
Transfer characteristics       : BT.709
Matrix coefficients            : BT.709

Audio #1
ID                             : 2
Format                         : AC-3
Format/Info                    : Audio Coding 3
Commercial name                : Dolby Digital
Codec ID                       : A_AC3
Duration                       : 1 h 54 min
Bit rate mode                  : Constant
Bit rate                       : 192 kb/s
Channel(s)                     : 2 channels
Channel layout                 : L R
Sampling rate                  : 48.0 kHz
Frame rate                     : 31.250 FPS (1536 SPF)
Bit depth                      : 16 bits
Compression mode               : Lossy
Delay relative to video        : -115 ms
Stream size                    : 157 MiB (11%)
Language                       : Hindi
Service kind                   : Complete Main
Default                        : Yes
Forced                         : Yes

Audio #2
ID                             : 3
Format                         : AAC LC SBR
Format/Info                    : Advanced Audio Codec Low Complexity with Spectral Band Replication
Commercial name                : HE-AAC
Format settings                : NBC
Codec ID                       : A_AAC-5
Duration                       : 1 h 54 min
Bit rate                       : 80.0 kb/s
Channel(s)                     : 2 channels
Channel layout                 : L R
Sampling rate                  : 44.1 kHz
Frame rate                     : 21.533 FPS (2048 SPF)
Compression mode               : Lossy
Delay relative to video        : -115 ms
Stream size                    : 65.5 MiB (5%)
Title                          : Stereo
Language                       : Telugu
Default                        : No
Forced                         : No

Text
ID                             : 4
Format                         : UTF-8
Codec ID                       : S_TEXT/UTF8
Codec ID/Info                  : UTF-8 Plain Text
Duration                       : 1 h 48 min
Bit rate                       : 59 b/s
Count of elements              : 1386
Stream size                    : 47.0 KiB (0%)
Language                       : English
Default                        : Yes
Forced                         : No


SCREENSHOT


[/url



Keep Visit DesireMoVies.trade For More Exusive MoVies


Files:

Potugadu (2013) UNCUT 720p HDRip x264 Esub [Dual Audio] [Hindi DD 2.0 - Telugu 2.0]
  • SAMPLE.mkv (14.0 MB)
  • Potugadu (2013) UNCUT 720p HDRip x264 Esub [Dual Audio] DesireMovies.Life.mkv (1.3 GB)

Comments

Code:

  • udp://tracker.coppersurfer.tk:6969/announce
  • udp://tracker.pirateparty.gr:6969/announce
  • udp://shadowshq.yi.org:6969/announce
  • udp://eddie4.nl:6969/announce
  • udp://tracker.leechers-paradise.org:6969/announce
  • udp://tracker.opentrackr.org:1337/announce
  • udp://p4p.arenabg.ch:1337/announce
  • udp://p4p.arenabg.com:1337/announce
  • udp://9.rarbg.me:2710/announce
  • udp://9.rarbg.to:2710/announce
  • udp://ipv4.tracker.harry.lu:80/announce
  • udp://tracker.grepler.com:6969/announce
  • udp://public.popcorn-tracker.org:6969/announce
  • udp://tracker.opentrackr.org:1337/announce
  • udp://tracker.zer0day.to:1337/announce
DOWNLOAD Torrent