Loading...

Creed (2015) UNCUT 720p BluRay x264 Esub [Dual Audio] [Hindi DD 2...

  • Category Movies
  • Type Dubs/Dual Audio
  • Language Hindi
  • Total size 1.3 GB
  • Uploaded By DESIRE123
  • Downloads 4994
  • Last checked 3 months ago
  • Date uploaded 3 months ago
  • Seeders 53
  • Leechers 35

Creed

Drama

The former World Heavyweight Champion Rocky Balboa serves as a trainer and mentor to Adonis Johnson, the son of his late friend and former rival Apollo Creed.

Infohash : 7D8F7B23C7FD536F613075B232E7287F08915C3A

Creed (2015) UNCUT 720p BluRay x264 Esub [Dual Audio] [Hindi DD 2.0 - English 2.0] - 1.3 GB


EXUSIVE UPLOAD BY DesireMoVies.Life


Creed (2015)


POSTER




INFO


General
Format                         : Matroska
Format version                 : Version 4
File size                      : 1.32 GiB
Duration                       : 2 h 13 min
Overall bit rate               : 1 422 kb/s

Video
ID                             : 1
Format                         : AVC
Format/Info                    : Advanced Video Codec
Format profile                 : [email protected]
Format settings                : CABAC / 12 Ref Frames
Format settings, CABAC         : Yes
Format settings, ReFrames      : 12 frames
Codec ID                       : V_MPEG4/ISO/AVC
Duration                       : 2 h 13 min
Bit rate                       : 1 100 kb/s
Width                          : 1 280 pixels
Height                         : 534 pixels
Display aspect ratio           : 2.40:1
Original display aspect ratio  : 2.40:1
Frame rate mode                : Constant
Frame rate                     : 23.976 (24000/1001) FPS
Color space                    : YUV
Chroma subsampling             : 4:2:0
Bit depth                      : 8 bits
Default                        : Yes
Forced                         : No
Color range                    : Limited
Color primaries                : BT.709
Transfer characteristics       : BT.709
Matrix coefficients            : BT.709

Audio #1
ID                             : 2
Format                         : AC-3
Format/Info                    : Audio Coding 3
Commercial name                : Dolby Digital
Codec ID                       : A_AC3
Duration                       : 2 h 13 min
Bit rate mode                  : Constant
Bit rate                       : 192 kb/s
Channel(s)                     : 2 channels
Channel layout                 : L R
Sampling rate                  : 48.0 kHz
Frame rate                     : 31.250 FPS (1536 SPF)
Bit depth                      : 16 bits
Compression mode               : Lossy
Delay relative to video        : -105 ms
Stream size                    : 183 MiB (14%)
Title                          : DesireMovies.Life - Hindi
Language                       : Hindi
Service kind                   : Complete Main
Default                        : Yes
Forced                         : Yes

Audio #2
ID                             : 3
Format                         : AAC LC SBR
Format/Info                    : Advanced Audio Codec Low Complexity with Spectral Band Replication
Commercial name                : HE-AAC
Format settings                : NBC
Codec ID                       : A_AAC-5
Duration                       : 2 h 13 min
Bit rate                       : 128 kb/s
Channel(s)                     : 2 channels
Channel layout                 : L R
Sampling rate                  : 48.0 kHz
Frame rate                     : 23.438 FPS (2048 SPF)
Compression mode               : Lossy
Delay relative to video        : -105 ms
Stream size                    : 122 MiB (9%)
Title                          : Stereo
Language                       : English
Default                        : No
Forced                         : No

Text
ID                             : 4
Format                         : UTF-8
Codec ID                       : S_TEXT/UTF8
Codec ID/Info                  : UTF-8 Plain Text
Duration                       : 2 h 11 min
Bit rate                       : 69 b/s
Count of elements              : 2093
Stream size                    : 66.9 KiB (0%)
Language                       : English
Default                        : Yes
Forced                         : No


SCREENSHOT



Hindi Audio By [email protected]


Files:

Creed (2015) UNCUT 720p BluRay x264 Esub [Dual Audio] [Hindi DD 2.0 - English 2.0]
  • 1SAMPLE.mkv (11.6 MB)
  • Creed (2015) UNCUT 720p BluRay x264 Esub [Dual Audio] DesireMovies.life.mkv (1.3 GB)

Comments

Code:

  • udp://tracker.opentrackr.org:1337/announce
  • udp://zer0day.to:1337/announce
  • udp://tracker.coppersurfer.tk:6969/announce
  • udp://tracker.coppersurfer.tk:80/announce
  • udp://p4p.arenabg.com:1337/announce
  • udp://p4p.arenabg.ch:1337/announce
  • udp://tracker.internetwarriors.net:1337/announce
  • udp://9.rarbg.to:2710/announce
  • udp://9.rarbg.me:2710/announce
  • udp://9.rarbg.com:2710/announce
  • udp://9.rarbg.me:2730/announce
  • udp://eddie4.nl:6969/announce
  • udp://tracker.leechers-paradise.org:6969/announce
  • udp://tracker.ilibr.org:80/announce
  • udp://tracker.ilibr.org:6969/announce
DOWNLOAD Torrent