Loading...

Young.Justice.Outsiders.S03E01-03.720p.WEB-DL.x265-HETeam

  • Category TV
  • Type HEVC/x265
  • Language English
  • Total size 173.4 MB
  • Uploaded By Crazy4TV
  • Downloads 7106
  • Last checked 1 hour ago
  • Date uploaded 5 months ago
  • Seeders 78
  • Leechers 3

Infohash : 4622162F9C5B9567BC8ECADFCAEC2954F69D5D9C





Video
ID : 1
Format : HEVC
Format/Info : High Efficiency Video Coding
Format profile : [email protected]@Main
Codec ID : V_MPEGH/ISO/HEVC
Duration : 24 min 5 s
Bit rate : 286 kb/s
Width : 1 192 pixels
Height : 666 pixels
Display aspect ratio : 16:9
Frame rate mode : Variable
Frame rate : 29.929 FPS
Color space : YUV
Chroma subsampling : 4:2:0 (Type 0)
Bit depth : 8 bits
Bits/(Pixel*Frame) : 0.012
Stream size : 49.2 MiB (81%)
Default : Yes
Forced : No
Color range : Limited
Color primaries : BT.709

Audio
ID : 2
Format : AAC
Format/Info : Advanced Audio Codec
Format profile : HE-AAC / LC
Format settings : Explicit
Codec ID : A_AAC-2
Duration : 24 min 5 s
Bit rate : 64.0 kb/s
Channel(s) : 2 channels
Channel positions : Front: L R
Sampling rate : 48.0 kHz / 24.0 kHz
Frame rate : 23.438 FPS (1024 SPF)
Compression mode : Lossy
Delay relative to video : -4 ms
Stream size : 11.0 MiB (18%)
Default : Yes
Forced : No

Text
ID : 3
Format : UTF-8
Codec ID : S_TEXT/UTF8
Codec ID/Info : UTF-8 Plain Text
Duration : 5 s 652 ms
Bit rate : 43 b/s
Count of elements : 1
Stream size : 31.0 Bytes (0%)
Default : Yes
Forced : No



Files:

Young.Justice.Outsiders.S03E01-03.720p.WEB-DL.x265-HETeam
  • Young.Justice.Outsiders.S03E01.720p.WEB-DL.x265-HETeam.mkv (60.6 MB)
  • Read Me.txt (0.2 KB)
  • Young.Justice.Outsiders.S03E02.720p.WEB-DL.x265-HETeam.mkv (57.6 MB)
  • Young.Justice.Outsiders.S03E03.720p.WEB-DL.x265-HETeam.mkv (55.2 MB)

Comments

Code:

  • udp://tracker.coppersurfer.tk:6969/announce
DOWNLOAD Torrent