Loading...

Toy Story 3 2010.MULTi.UHD.BluRay.2160p.HEVC.HDR.Atmos.7.1-DDR

  • Category Movies
  • Type UHD
  • Language English
  • Total size 14.0 GB
  • Uploaded By SaM
  • Downloads 348
  • Last checked 4 weeks ago
  • Date uploaded 1 month ago
  • Seeders 31
  • Leechers 25

Infohash : CB8B4255C8AC0A987B8DFA6B02B35D052E6A6706

For More DDR Contents:

//www.ettv.to/


[/align]



SPECS

Source : UHD Blu-ray

Format : Matroska
File size : 14.0 GiB
Duration : 1 h 42 min
Overall bit rate mode : Variable
Overall bit rate : 19.6 Mb/s

Video
Format : HEVC/HDR
Bit rate : 9 751 kb/s
Width : 3 840 pixels
Height : 2 160 pixels
Bit depth : 10 bits
Color primaries : BT.2020
Transfer characteristics : PQ
Matrix coefficients : BT.2020 non-constant
Mastering display color primaries : Display P3
Mastering display luminance : min: 0.0001 cd/m2, max: 1000 cd/m2


Audio
Audio #1
ID : 2
Format : MLP FBA 16-ch
Format/Info : Meridian Lossless Packing FBA with 16-channel presentation
Commercial name : Dolby TrueHD with Dolby Atmos
Codec ID : A_TRUEHD
Duration : 1 h 42 min
Bit rate mode : Variable
Bit rate : 7 402 kb/s
Maximum bit rate : 8 814 kb/s
Channel(s) : 8 channels
Channel layout : L R C LFE Ls Rs Lb Rb
Sampling rate : 48.0 kHz
Frame rate : 1 200.000 FPS (40 SPF)
Compression mode : Lossless
Delay relative to video : 32 ms
Stream size : 5.30 GiB (38%)
Language : English
Default : Yes
Forced : No
Number of dynamic objects : 13
Bed channel count : 1 channel
Bed channel configuration : LFE

Audio #2
ID : 3
Format : E-AC-3
Format/Info : Enhanced AC-3
Commercial name : Dolby Digital Plus
Format profile : Blu-ray Disc
Codec ID : A_EAC3
Duration : 1 h 42 min
Bit rate mode : Constant
Bit rate : 1 024 kb/s
Channel(s) : 8 channels
Channel layout : L R C LFE Ls Rs Lb Rb
Sampling rate : 48.0 kHz
Frame rate : 31.250 FPS (1536 SPF)
Compression mode : Lossy
Delay relative to video : 1 ms
Stream size : 751 MiB (5%)
Language : English
Service kind : Complete Main
Default : No
Forced : No

Audio #3
ID : 4
Format : AC-3
Format/Info : Audio Coding 3
Commercial name : Dolby Digital
Codec ID : A_AC3
Duration : 1 h 42 min
Bit rate mode : Constant
Bit rate : 640 kb/s
Channel(s) : 6 channels
Channel layout : L R C LFE Ls Rs
Sampling rate : 48.0 kHz
Frame rate : 31.250 FPS (1536 SPF)
Bit depth : 16 bits
Compression mode : Lossy
Delay relative to video : 1 ms
Stream size : 469 MiB (3%)
Language : French
Service kind : Complete Main
Default : No
Forced : No

Audio #4
ID : 5
Format : AC-3
Format/Info : Audio Coding 3
Commercial name : Dolby Digital
Codec ID : A_AC3
Duration : 1 h 42 min
Bit rate mode : Constant
Bit rate : 640 kb/s
Channel(s) : 6 channels
Channel layout : L R C LFE Ls Rs
Sampling rate : 48.0 kHz
Frame rate : 31.250 FPS (1536 SPF)
Bit depth : 16 bits
Compression mode : Lossy
Delay relative to video : 1 ms
Stream size : 469 MiB (3%)
Language : Spanish

Subs:
En Fr Jp Sp

Dsitorrents.tv: Request for reseed of my Old Releases:

HERE


ETTV: Request for reseed of my Old Releases here:

HERE




[email protected]

Files:

Toy Story 3 2010.MULTi.UHD.BluRay.2160p.HEVC.HDR.Atmos.7.1-DDR
  • Toy.Story.3.2010.MULTi.UHD.BluRay.2160p.HEVC.HDR.Atmos.7.1-DDR.mkv (14.0 GB)
  • Torrent downloaded from Desitorrents.tv.txt (0.0 KB)
  • A DDR Release !!!.txt (0.3 KB)

There are currently no comments. Feel free to leave one :)

Code:

  • udp://denis.stalker.upeer.me:6969/announce
  • udp://tracker.internetwarriors.net:1337/announce
  • udp://tracker.uw0.xyz:6969/announce
  • udp://tracker.cyberia.is:6969/announce
  • udp://tracker.moeking.me:6969/announce
  • udp://tracker.torrent.eu.org:451
  • udp://explodie.org:6969/announce
  • udp://ipv4.tracker.harry.lu:80/announce
  • udp://tracker.opentrackr.org:1337/announce
  • udp://tracker.tiny-vps.com:6969/announce
cdn
DOWNLOAD Torrent
X
Attention! Use a VPN when Accessing Free Content !
Your IP address is - Country:
Your Internet provider Tracks your Activity! Hide your IP ADDRESS with a VPN!
Bonus: Get Lag-Free Streams & No popups with any VPN Purchased !

Download Here