Loading...

Hansel and Gretel-Witch Hunters 2013.Theatrical.2160p.UHD.BluRay....

  • Category Movies
  • Type UHD
  • Language English
  • Total size 12.3 GB
  • Uploaded By SaM
  • Downloads 140
  • Last checked 4 weeks ago
  • Date uploaded 1 month ago
  • Seeders 13
  • Leechers 14

Infohash : 074F7C73C16B61758ECE6EF914D38D5E18D14202

For More DDR Contents:

//www.ettv.to/




[/align]


SPECS

Source : UHD Blu-ray

Format : Matroska
File size : 12.3 GiB
Duration : 1 h 27 min
Overall bit rate mode : Variable
Overall bit rate : 20.1 Mb/s

Video
Format : HEVC/HDR
Bit rate : 15.7 Mb/s
Width : 3 840 pixels
Height : 1 600 pixels
Bit depth : 10 bits
Color primaries : BT.2020
Transfer characteristics : PQ
Matrix coefficients : BT.2020 non-constant
Mastering display color primaries : Display P3
Mastering display luminance : min: 0.0001 cd/m2, max: 1000 cd/m2


Audio #1
ID : 2
Format : MLP FBA
Format/Info : Meridian Lossless Packing FBA
Commercial name : Dolby TrueHD
Codec ID : A_TRUEHD
Duration : 1 h 27 min
Bit rate mode : Variable
Bit rate : 3 526 kb/s
Maximum bit rate : 4 860 kb/s
Channel(s) : 6 channels
Channel layout : L R C LFE Ls Rs
Sampling rate : 48.0 kHz
Frame rate : 1 200.000 FPS (40 SPF)
Compression mode : Lossless
Stream size : 2.17 GiB (18%)
Language : English
Default : Yes
Forced : No

Audio #2
ID : 3
Format : AC-3
Format/Info : Audio Coding 3
Commercial name : Dolby Digital
Codec ID : A_AC3
Duration : 1 h 27 min
Bit rate mode : Constant
Bit rate : 640 kb/s
Channel(s) : 6 channels
Channel layout : L R C LFE Ls Rs
Sampling rate : 48.0 kHz
Frame rate : 31.250 FPS (1536 SPF)
Bit depth : 16 bits
Compression mode : Lossy
Stream size : 403 MiB (3%)
Language : English


Subs:
En Ar Chi Cze Dut Fr Ger Gre Hindi Hun Ice It Jp Mal Pol Por Rom Ru Slo Sp Thai Tur

Dsitorrents.tv: Request for reseed of my Old Releases:

HERE


ETTV: Request for reseed of my Old Releases here:

HERE




[email protected]

Files:

Hansel and Gretel-Witch Hunters 2013.Theatrical.2160p.UHD.BluRay.HEVC.HDR.TrueHD.5.1-DDR
  • Hansel and Gretel-Witch Hunters 2013.Theatrical.2160p.UHD.BluRay.HEVC.HDR.TrueHD.5.1-DDR.mkv (12.3 GB)
  • A DDR Release !!!.txt (0.3 KB)
  • Torrent downloaded from Desitorrents.tv.txt (0.0 KB)

There are currently no comments. Feel free to leave one :)

Code:

  • udp://open.demonii.si:1337/announce
  • udp://tracker.leechers-paradise.org:6969/announce
  • udp://denis.stalker.upeer.me:6969/announce
  • udp://exodus.desync.com:6969/announce
  • udp://tracker.internetwarriors.net:1337/announce
  • udp://tracker.uw0.xyz:6969/announce
  • udp://tracker.cyberia.is:6969/announce
  • udp://tracker.moeking.me:6969/announce
  • udp://tracker.torrent.eu.org:451
  • udp://explodie.org:6969/announce
  • udp://ipv4.tracker.harry.lu:80/announce
  • udp://tracker.opentrackr.org:1337/announce
  • udp://tracker.tiny-vps.com:6969/announce
cdn
DOWNLOAD Torrent
X
Attention! Use a VPN when Accessing Free Content !
Your IP address is - Country:
Your Internet provider Tracks your Activity! Hide your IP ADDRESS with a VPN!
Bonus: Get Lag-Free Streams & No popups with any VPN Purchased !

Download Here