Loading...

Batman and Robin 1997.MULTi.2160p.UHD.BluRay.HDR.HEVC.Atmos.7.1-D...

  • Category Movies
  • Type UHD
  • Language English
  • Total size 20.0 GB
  • Uploaded By SaM
  • Downloads 148
  • Last checked 4 weeks ago
  • Date uploaded 1 month ago
  • Seeders 12
  • Leechers 20

Infohash : 733E85EC1F3DAAF542B1722F426A79FF1886B001

For More DDR Contents:

//www.ettv.to/


[/align]
[align=center][/align]


SPECS

Source : UHD Blu-ray

Format : Matroska
File size : 20.0 GiB
Duration : 2 h 4 min
Overall bit rate mode : Variable
Overall bit rate : 22.9 Mb/s

Video
Format : HEVC/HDR
Bit rate : 15.9 Mb/s
Width : 3 840 pixels
Height : 2 072 pixels
Bit depth : 10 bits
Color primaries : BT.2020
Transfer characteristics : PQ
Matrix coefficients : BT.2020 non-constant
Mastering display color primaries : Display P3
Mastering display luminance : min: 0.0001 cd/m2, max: 1000 cd/m2
Maximum Content Light Level : 1642 cd/m2
Maximum Frame-Average Light Level : 167 cd/m2


Audio

Audio #1
ID : 2
Format : MLP FBA 16-ch
Format/Info : Meridian Lossless Packing FBA with 16-channel presentation
Commercial name : Dolby TrueHD with Dolby Atmos
Codec ID : A_TRUEHD
Duration : 2 h 4 min
Bit rate mode : Variable
Bit rate : 4 153 kb/s
Maximum bit rate : 7 032 kb/s
Channel(s) : 8 channels
Channel layout : L R C LFE Ls Rs Lb Rb
Sampling rate : 48.0 kHz
Frame rate : 1 200.000 FPS (40 SPF)
Compression mode : Lossless
Stream size : 3.62 GiB (18%)
Language : English
Default : Yes
Forced : No
Number of dynamic objects : 15
Bed channel count : 1 channel
Bed channel configuration : LFE

Audio #2
ID : 3
Format : AC-3
Format/Info : Audio Coding 3
Commercial name : Dolby Digital
Codec ID : A_AC3
Duration : 2 h 4 min
Bit rate mode : Constant
Bit rate : 640 kb/s
Channel(s) : 6 channels
Channel layout : L R C LFE Ls Rs
Sampling rate : 48.0 kHz
Frame rate : 31.250 FPS (1536 SPF)
Bit depth : 16 bits
Compression mode : Lossy
Stream size : 572 MiB (3%)
Language : English
Service kind : Complete Main
Default : No
Forced : No

Audio #3
ID : 4
Format : AC-3
Format/Info : Audio Coding 3
Commercial name : Dolby Digital
Codec ID : A_AC3
Duration : 2 h 4 min
Bit rate mode : Constant
Bit rate : 448 kb/s
Channel(s) : 6 channels
Channel layout : L R C LFE Ls Rs
Sampling rate : 48.0 kHz
Frame rate : 31.250 FPS (1536 SPF)
Bit depth : 16 bits
Compression mode : Lossy
Stream size : 400 MiB (2%)
Language : French
Service kind : Complete Main
Default : No
Forced : No

Audio #4
ID : 5
Format : AC-3
Format/Info : Audio Coding 3
Commercial name : Dolby Digital
Codec ID : A_AC3
Duration : 2 h 4 min
Bit rate mode : Constant
Bit rate : 448 kb/s
Channel(s) : 6 channels
Channel layout : L R C LFE Ls Rs
Sampling rate : 48.0 kHz
Frame rate : 31.250 FPS (1536 SPF)
Bit depth : 16 bits
Compression mode : Lossy
Stream size : 400 MiB (2%)
Language : German
Service kind : Complete Main
Default : No
Forced : No

Audio #5
ID : 6
Format : AC-3
Format/Info : Audio Coding 3
Commercial name : Dolby Digital
Codec ID : A_AC3
Duration : 2 h 4 min
Bit rate mode : Constant
Bit rate : 448 kb/s
Channel(s) : 6 channels
Channel layout : L R C LFE Ls Rs
Sampling rate : 48.0 kHz
Frame rate : 31.250 FPS (1536 SPF)
Bit depth : 16 bits
Compression mode : Lossy
Stream size : 400 MiB (2%)
Language : Italian
Service kind : Complete Main
Default : No
Forced : No

Audio #6
ID : 7
Format : AC-3
Format/Info : Audio Coding 3
Commercial name : Dolby Digital
Codec ID : A_AC3
Duration : 2 h 4 min
Bit rate mode : Constant
Bit rate : 448 kb/s
Channel(s) : 6 channels
Channel layout : L R C LFE Ls Rs
Sampling rate : 48.0 kHz
Frame rate : 31.250 FPS (1536 SPF)
Bit depth : 16 bits
Compression mode : Lossy
Stream size : 400 MiB (2%)
Language : Spanish
Service kind : Complete Main
Default : No
Forced : No

Audio #7
ID : 8
Format : AC-3
Format/Info : Audio Coding 3
Commercial name : Dolby Digital
Codec ID : A_AC3
Duration : 2 h 4 min
Bit rate mode : Constant
Bit rate : 192 kb/s
Channel(s) : 2 channels
Channel layout : L R
Sampling rate : 48.0 kHz
Frame rate : 31.250 FPS (1536 SPF)
Bit depth : 16 bits
Compression mode : Lossy
Stream size : 171 MiB (1%)
Language : Chinese




Subs:
En Sp Jp Fr Ger It Dut Chi Kor Ara Cze Dan Fin Hun Nor Pol Ru Swe Thai



[email protected]

Files:

Batman and Robin 1997.MULTi.2160p.UHD.BluRay.HDR.HEVC.Atmos.7.1-DDR
  • Batman and Robin 1997.MULTi.2160p.UHD.BluRay.HDR.HEVC.Atmos.7.1-DDR.mkv (20.0 GB)
  • A DDR Release !!!.txt (0.3 KB)
  • Torrent downloaded from Desitorrents.tv.txt (0.0 KB)

There are currently no comments. Feel free to leave one :)

Code:

  • udp://open.demonii.si:1337/announce
  • udp://tracker.leechers-paradise.org:6969/announce
  • udp://denis.stalker.upeer.me:6969/announce
  • udp://exodus.desync.com:6969/announce
  • udp://tracker.internetwarriors.net:1337/announce
  • udp://tracker.uw0.xyz:6969/announce
  • udp://tracker.cyberia.is:6969/announce
  • udp://tracker.moeking.me:6969/announce
  • udp://tracker.torrent.eu.org:451
  • udp://explodie.org:6969/announce
  • udp://ipv4.tracker.harry.lu:80/announce
  • udp://tracker.opentrackr.org:1337/announce
  • udp://tracker.tiny-vps.com:6969/announce
cdn
DOWNLOAD Torrent
X
Attention! Use a VPN when Accessing Free Content !
Your IP address is - Country:
Your Internet provider Tracks your Activity! Hide your IP ADDRESS with a VPN!
Bonus: Get Lag-Free Streams & No popups with any VPN Purchased !

Download Here