Loading...

The.100.S06E06.Memento.Mori.WEB-DL.XviD.B4ND1T69

  • Category TV
  • Type Divx/Xvid
  • Language English
  • Total size 323.8 MB
  • Uploaded By B4ND1T69
  • Downloads 105
  • Last checked 1 month ago
  • Date uploaded 1 month ago
  • Seeders 11
  • Leechers 3
70%
June 12, 2019, 3:00 am

The 100

Diyoza learns more about the mysterious Children of Gabriel while Abby continues searching for a way to save Kane.

Infohash : C33B701AD7E1EF25E0AFBCE1FD86A01FDD76B908

The.100.S06E06.Memento.Mori.WEB-DL.XviD.B4ND1T69



Creator: Jason Rothenberg
Stars: Eliza Taylor, Bob Morley, Marie Avgeropoulos

Plot/Story:
Memento Mori
Diyoza learns more about the mysterious Children of Gabriel while Abby continues to search for a way to save Kane.

General
Complete name : The.100.S06E06.Memento.Mori.WEB-DL.XviD.B4ND1T69.avi
Format : AVI
Format/Info : Audio Video Interleave
File size : 324 MiB
Duration : 42 min 28 s
Overall bit rate : 1 066 kb/s
Subtitles : Yes...Included(HI)

Video
ID : 0
Format : MPEG-4 Visual
Format profile : Advanced [email protected]
Format settings, BVOP : 2
Format settings, QPel : No
Format settings, GMC : No warppoints
Format settings, Matrix : Default (H.263)
Codec ID : XVID
Codec ID/Hint : XviD
Duration : 42 min 28 s
Bit rate : 924 kb/s
Width : 640 pixels
Height : 360 pixels
Display aspect ratio : 16:9
Frame rate : 23.976 (24000/1001) FPS
Color space : YUV
Chroma subsampling : 4:2:0
Bit depth : 8 bits
Scan type : Progressive
Compression mode : Lossy
Bits/(Pixel*Frame) : 0.167
Stream size : 281 MiB (87%)
Writing library : XviD 64

Audio
ID : 1
Format : MPEG Audio
Format version : Version 1
Format profile : Layer 3
Codec ID : 55
Codec ID/Hint : MP3
Duration : 42 min 27 s
Bit rate mode : Constant
Bit rate : 128 kb/s
Channel(s) : 2 channels
Sampling rate : 48.0 kHz
Compression mode : Lossy
Stream size : 38.9 MiB (12%)
Alignment : Aligned on interleaves
Interleave, duration : 24 ms (0.58 video frame)

Screenshots:

//i.imgur.com/Pnv4WkD.png
//i.imgur.com/pWtiICi.png
//i.imgur.com/ituyNZt.png
//i.imgur.com/XULjcjZ.png
//i.imgur.com/OedBlzO.png






Please Seed For As Long As Possible
Or At Least 1:1 Ratio...Thanks
Enjoy Peeps

Files:

The.100.S06E06.Memento.Mori.WEB-DL.XviD.B4ND1T69
  • 1337x text file.txt (0.1 KB)
  • KAT text file.txt (0.1 KB)
  • The.100.S06E06.Memento.Mori.WEB-DL.XviD.B4ND1T69.srt (45.2 KB)
  • The.100.S06E06.Memento.Mori.WEB-DL.XviD.B4ND1T69.avi (323.8 MB)

There are currently no comments. Feel free to leave one :)

Code:

  • udp://tracker.coppersurfer.tk:6969/announce
  • udp://tracker.pirateparty.gr:6969/announce
  • udp://tracker.opentrackr.org:1337/announce
  • udp://tracker.internetwarriors.net:1337/announce
  • udp://tracker.tiny-vps.com:6969/announce
  • udp://open.demonii.si:1337/announce
  • udp://tracker.torrent.eu.org:451/announce
  • udp://tracker.leechers-paradise.org:6969/announce
  • udp://explodie.org:6969/announce
cdn
DOWNLOAD Torrent
X
Attention! Use a VPN when Accessing Free Content !
Your IP address is - Country:
Your Internet provider Tracks your Activity! Hide your IP ADDRESS with a VPN!
Bonus: Get Lag-Free Streams & No popups with any VPN Purchased !

Download Here