Loading...

Marco Polo: One Hundred Eyes (2015) (1080p NF WEBRip x265 HEVC 10...

  • Category Movies
  • Type HEVC/x265
  • Language English
  • Total size 222.7 MB
  • Uploaded By UTRCorp
  • Downloads 308
  • Last checked 2 days ago
  • Date uploaded 5 days ago
  • Seeders 5
  • Leechers 0

Marco Polo: One Hundred Eyes

Before he lost his sight. Before he pledged his service to Kublai Khan. Hundred Eyes saw what made him into the deadly assassin who trains Marco Polo.

Infohash : AE53F671738C3FE4CD9EB84B167E574E64DBB8B6





Media Information
Re-Up By Request

Media Information

Code:

General
Format : Matroska
Format version : Version 4 / Version 2
File size : 223 MiB
Duration : 28 min 16 s
Overall bit rate : 1 101 kb/s
Encoded date : UTC 2016-04-13 20:43:29
Writing application : mkvmerge v8.9.0 ('Father Daughter') 64bit
Writing library : libebml v1.3.3 + libmatroska v1.4.4

Video
ID : 1
Format : HEVC
Format/Info : High Efficiency Video Coding
Format profile : Main [email protected]@Main
Codec ID : V_MPEGH/ISO/HEVC
Duration : 28 min 16 s
Bit rate : 897 kb/s
Width : 1 920 pixels
Height : 960 pixels
Display aspect ratio : 2.000
Frame rate mode : Constant
Frame rate : 23.976 (24000/1001) FPS
Color space : YUV
Chroma subsampling : 4:2:0
Bit depth : 10 bits
Bits/(Pixel*Frame) : 0.020
Stream size : 181 MiB (81%)
Writing library : x265 1.9+54-291beccb6760:[Windows][GCC 5.3.0][64 bit] 10bit
Encoding settings : wpp / ctu=64 / min-cu-size=8 / max-tu-size=32 / tu-intra-depth=1 / tu-inter-depth=1 / me=1 / subme=2 / merange=57 / no-rect / no-amp / max-merge=2 / temporal-mvp / no-early-skip / rdpenalty=0 / no-tskip / no-tskip-fast / strong-intra-smoothing / no-lossless / no-cu-lossless / no-constrained-intra / no-fast-intra / open-gop / no-temporal-layers / interlace=0 / keyint=250 / min-keyint=23 / scenecut=40 / rc-lookahead=20 / lookahead-slices=6 / bframes=4 / bframe-bias=0 / b-adapt=2 / ref=3 / limit-refs=0 / no-limit-modes / weightp / no-weightb / aq-mode=1 / qg-size=64 / aq-strength=1.00 / cbqpoffs=0 / crqpoffs=0 / rd=3 / psy-rd=2.00 / rdoq-level=0 / psy-rdoq=0.00 / no-rd-refine / signhide / deblock / sao / no-sao-non-deblock / b-pyramid / cutree / no-intra-refresh / rc=2 / pass / bitrate=897 / qcomp=0.60 / qpmin=0 / qpmax=51 / qpstep=4 / cplxblur=20.0 / qblur=0.5 / ipratio=1.40 / pbratio=1.30
Default : Yes
Forced : No

Audio
ID : 2
Format : AAC
Format/Info : Advanced Audio Codec
Format profile : HE-AAC / LC
Codec ID : A_AAC
Duration : 28 min 16 s
Bit rate : 202 kb/s
Channel(s) : 6 channels
Channel positions : Front: L C R, Side: L R, LFE
Sampling rate : 48.0 kHz / 24.0 kHz
Frame rate : 23.438 FPS (1024 spf)
Compression mode : Lossy
Delay relative to video : 31 ms
Stream size : 40.8 MiB (18%)
Language : English
Default : Yes
Forced : No

Subtitle #1
ID : 3
Format : UTF-8
Codec ID : S_TEXT/UTF8
Codec ID/Info : UTF-8 Plain Text
Duration : 24 min 46 s
Bit rate : 34 b/s
Count of elements : 196
Stream size : 6.25 KiB (0%)
Language : English
Default : No
Forced : No

Subtitle #2
ID : 4
Format : UTF-8
Codec ID : S_TEXT/UTF8
Codec ID/Info : UTF-8 Plain Text
Duration : 24 min 46 s
Bit rate : 39 b/s
Count of elements : 240
Stream size : 7.20 KiB (0%)
Language : English
Default : No
Forced : No

Subtitle #3
ID : 5
Format : UTF-8
Codec ID : S_TEXT/UTF8
Codec ID/Info : UTF-8 Plain Text
Duration : 27 min 48 s
Bit rate : 34 b/s
Count of elements : 193
Stream size : 7.13 KiB (0%)
Language : French
Default : No
Forced : No

Subtitle #4
ID : 6
Format : UTF-8
Codec ID : S_TEXT/UTF8
Codec ID/Info : UTF-8 Plain Text
Duration : 26 min 1 s
Bit rate : 37 b/s
Count of elements : 190
Stream size : 7.12 KiB (0%)
Language : German
Default : No
Forced : No

Subtitle #5
ID : 7
Format : UTF-8
Codec ID : S_TEXT/UTF8
Codec ID/Info : UTF-8 Plain Text
Duration : 26 min 1 s
Bit rate : 37 b/s
Count of elements : 192
Stream size : 7.05 KiB (0%)
Language : Italian
Default : No
Forced : No

Subtitle #6
ID : 8
Format : UTF-8
Codec ID : S_TEXT/UTF8
Codec ID/Info : UTF-8 Plain Text
Duration : 26 min 1 s
Bit rate : 34 b/s
Count of elements : 192
Stream size : 6.54 KiB (0%)
Language : Spanish
Default : No
Forced : No



Source Information

Code:

Release: Unknown Source/NO-GROUP



Code:


Note From UTR
We have no issue with individuals posting or re-uploading our torrents on a platform we aren't on. However, if this is something you'd like to do, please do so in a 'as-is' format. We ask that you do not create a new torrent, include all descriptions you see above including the UTR logo, tags, notes and screenshots. If you'd like to become a permanent poster on a website we don't post to, feel free to get in contact with a UniTeam member.

If possible please donate: BTC 1QA5fum5AyXvWzdVCkQzUNvw3Ef15fHRaR





Files:

  • Marco Polo One Hundred Eyes 2015 (1080p x265 10bit Joy).mkv (222.7 MB)

There are currently no comments. Feel free to leave one :)

Code:

  • udp://glotorrents.pw:6969/announce
  • //tracker.aletorrenty.pl:2710/announce
  • udp://tracker.justseed.it:1337
  • //tracker.ex.ua/announce
  • udp://torrent.gresille.org:80/announce
  • udp://tracker.opentrackr.org:1337/announce
  • udp://tracker.piratepublic.com:1337/announce
  • udp://p4p.arenabg.ch:1337/announce
  • udp://tracker.coppersurfer.tk:6969/announce
  • udp://tracker.openbittorrent.com:80/announce
  • udp://tracker.publicbt.com:80/announce
DOWNLOAD Torrent