Loading...

The Spy Who Fell to Earth 2019 720p NF WEB-DL x264 ESub [MW]

  • Category Movies
  • Type HD
  • Language English
  • Total size 890.1 MB
  • Uploaded By moviezworldz
  • Downloads 800
  • Last checked 1 week ago
  • Date uploaded 2 weeks ago
  • Seeders 11
  • Leechers 0

The Spy Who Fell to Earth

Documentary

The life and mysterious death of Ashraf Marwan, an Egyptian billionaire and Israeli spy.

Infohash : 0535CF54CF96B1EDB08267411E60B729A221B888





General
Format : Matroska
Format version : Version 4
File size : 890 MiB
Duration : 1 h 34 min
Overall bit rate : 1 323 kb/s

Video
ID : 1
Format : AVC
Format/Info : Advanced Video Codec
Format profile : [email protected]
Format settings : CABAC / 4 Ref Frames
Format settings, CABAC : Yes
Format settings, Reference frames : 4 frames
Codec ID : V_MPEG4/ISO/AVC
Duration : 1 h 34 min
Bit rate : 1 200 kb/s
Width : 1 280 pixels
Height : 540 pixels
Display aspect ratio : 2.40:1
Frame rate mode : Constant
Frame rate : 25.000 FPS
Color space : YUV
Chroma subsampling : 4:2:0
Bit depth : 8 bits
Scan type : Progressive
Bits/(Pixel*Frame) : 0.069
Stream size : 802 MiB (90%)
Writing library : x264 core 157 r2935 545de2f

Audio
ID : 2
Format : AAC LC
Codec ID : A_AAC-2
Duration : 1 h 34 min
Bit rate : 128 kb/s
Channel(s) : 2 channels
Channel layout : L R
Sampling rate : 48.0 kHz
Frame rate : 46.875 FPS (1024 SPF)
Compression mode : Lossy
Stream size : 86.3 MiB (10%)
Language : English
Default : Yes
Forced : No

Text
ID : 3
Format : UTF-8
Codec ID : S_TEXT/UTF8
Codec ID/Info : UTF-8 Plain Text
Duration : 1 h 32 min
Bit rate : 73 b/s
Count of elements : 1270
Stream size : 49.9 KiB (0%)
Language : English
Default : Yes
Forced : No


Click To View Image







Files:

The Spy Who Fell to Earth 2019 720p NF WEB-DL x264 ESub [MW]
  • The Spy Who Fell to Earth 2019 720p NF WEB-DL x264 ESub [MW].mkv (890.1 MB)

There are currently no comments. Feel free to leave one :)

Code:

  • udp://tracker.coppersurfer.tk:6969/announce
  • udp://tracker.pirateparty.gr:6969/announce
  • udp://shadowshq.yi.org:6969/announce
  • udp://eddie4.nl:6969/announce
  • udp://tracker.leechers-paradise.org:6969/announce
  • udp://tracker.opentrackr.org:1337/announce
  • udp://p4p.arenabg.ch:1337/announce
  • udp://p4p.arenabg.com:1337/announce
  • udp://9.rarbg.me:2740/announce
  • udp://9.rarbg.to:2750/announce
  • udp://ipv4.tracker.harry.lu:80/announce
  • udp://tracker.grepler.com:6969/announce
  • udp://public.popcorn-tracker.org:6969/announce
  • udp://tracker.opentrackr.org:1337/announce
  • udp://tracker.zer0day.to:1337/announce
DOWNLOAD Torrent